Новогодний концерт Венского филармонического оркестра 2016 / Neujahrskonzert der Wiener Philharmoniker 2016 (2016) IPTVRip от ivandubskoj

 

Создавать темы 04-Янв-2016 21:31

Новогодний концерт Венского филармонического оркестра 2016
Оригинальное название: Neujahrskonzert der Wiener Philharmoniker
Год выхода: 2016
Жанр: Концерт, классическая музыка
Режиссёр: Мишель Бейер
Исполнитель: Венский филармонический оркестр
Дирижёр: Марис Арвидович Янсонс
Описание:
Новогодний концерт Венского филармонического оркестра (2016). Запись в Золотом зале Венского общества друзей музыки (Musikverein). Это традиционный подарок телеканала "Россия К" своим зрителям. Ежегодный новогодний концерт Венского филармонического оркестра по праву считается одним из крупнейших мировых музыкальных событий года. Концерт имеет многолетнюю историю: первое выступление состоялось 31 декабря в 1939 году. Это мероприятие, открывающее европейский музыкальный календарь, вызывает огромный резонанс во всем мире.
К концерту в знаменитом Золотом зале Венского общества друзей музыки, куда съезжается аристократическая публика со всего мира, готовятся долго, тщательно подбирается репертуар, в котором по традиции неизменно звучат произведения знаменитых венских композиторов из семьи Штраусов – вальсы, мазурки, польки, галопы, марши.
Выпущено: Австрия, ORF
Продолжительность: 02:35:44
Перевод: Профессиональный одноголосый (Андрей Пряхин) - комментатор
Файл
Кодек: XviD
Качество: IPTVRip
Видео: XviD, 704x384 (16:9), 1804 Кбит/с, 25 кадр/с
Аудио: Dolby AC3, 48000 Гц, 192 Кбит/с, 2 канала (Стерео)

Треклист

Robert Stolz
Uno-Marsch
Johann Strauss, Jr.
Schatz-Walzer. op. 418
Violetta. Polka francaise, op. 404
Vergnügungszug. Polka (schnell), op. 281
Carl Michael Ziehrer
Weaner Madl'n. Walzer op. 388
Eduard Strauss
Mit Extrapost. Galopp, op. 259
-- Pause --
Johann Strauss, Jr.
Ouvertüre zu Eine Nacht in Venedig (Wiener Fassung)
Eduard Strauss
Ausser Rand und Band. Polka schnell, op. 168
Josef Strauss
Sphärenklänge. Walzer, op. 235
Johann Strauss, Jr.
Sängerslust. Polka francaise, op. 328
Josef Strauss
Auf Ferienreisen. Polka schnell, op. 133
Johann Strauss, Jr.
Fürstin Ninetta - Entr’acte zwischen 2. und 3. Akt
Èmile Waldteufel
Espana. Walzer, op. 236
Josef Hellmesberger sen.
Ball-Szene
Johann Strauss, sen.
Seufzer-Galopp, op. 9
Josef Strauss
Die Libelle. Polka mazur, op. 204
Johann Strauss, Jr.
Kaiser-Walzer, op. 437
Auf der Jagd. Polka schnell, op. 373

MediaInfo

General
Complete name : Neujahrskonzert.der.Wiener.Philharmoniker.2016.IPTVRip.avi
Format : AVI
Format/Info : Audio Video Interleave
Format profile : OpenDML
File size : 2.18 GiB
Duration : 2h 35mn
Overall bit rate : 2 006 Kbps
Writing application : VirtualDubMod 1.5.10.3 | www.virtualdub-fr.org || (build 2550/release)
Writing library : VirtualDubMod build 2550/release
Video
ID : 0
Format : MPEG-4 Visual
Format profile : Advanced [email protected]
Format settings, BVOP : 1
Format settings, QPel : No
Format settings, GMC : No warppoints
Format settings, Matrix : Custom
Codec ID : XVID
Codec ID/Hint : XviD
Duration : 2h 35mn
Bit rate : 1 804 Kbps
Width : 704 pixels
Height : 384 pixels
Display aspect ratio : 16:9
Frame rate : 25.000 fps
Color space : YUV
Chroma subsampling : 4:2:0
Bit depth : 8 bits
Scan type : Progressive
Compression mode : Lossy
Bits/(Pixel*Frame) : 0.267
Stream size : 1.96 GiB (90%)
Writing library : XviD 73
Audio
ID : 1
Format : AC-3
Format/Info : Audio Coding 3
Mode extension : CM (complete main)
Codec ID : 2000
Duration : 2h 35mn
Bit rate mode : Constant
Bit rate : 192 Kbps
Channel(s) : 2 channels
Channel positions : Front: L R
Sampling rate : 48.0 KHz
Bit depth : 16 bits
Compression mode : Lossy
Stream size : 214 MiB (10%)
Alignment : Split accross interleaves
Interleave, duration : 64 ms (1.60 video frames)
Interleave, preload duration : 500 ms

Скриншоты:

Яндекс.Метрика
Рейтинг@Mail.ru