Нюхач / NYUHACH (серия 1-8 из 8) (Артем Литвиненко) [2013, Детектив , HDTVRip-AVC 1080p] [DD5.1]

 

Создавать темы 23-Дек-2013 19:41

-Нюхач / NYUHACH-- --Год выпуска: 2013
Выпущено: Россия , Украина , «Film.ua Production»
Жанр: Детектив
Продолжительность: 00:50:00
Серия: 1-8
Количество серий в сезоне: 8
Перевод:НЕ ТРЕБУЕТСЯ
Субтитры : отсутствуют-- --Режиссер: Артем Литвиненко--В ролях: Кирилл Кяро, Иван Оганесян, Мария Аниканова, Нина Гогаева, Борис Каморзин, Тимофей Каратаев, Виолетта Трыкова, Тарас Готовцев, Денис Мартынов, Александр Новосёлов, Дмитрий Усов, Пётр Крылов (III)-- Его зовут Нюхач. Он обладает сверхчувствительным обонянием, для него не существует тайн и нераскрываемых преступлений. По запаху Нюхач может рассказать все и даже больше о любом человеке: что он ел, с кем он спал, есть ли у него алиби. Уникальная способность Нюхача – его дар и проклятие одновременно. С одной стороны, он раскрывает самые изощренные и запутанные преступления, знает все сокровенные тайны политиков, бизнесменов и криминальных авторитетов. С другой - Нюхач абсолютно беззащитен перед окружающим миром, переполненным всевозможными запахами. Он не умеет строить отношения ни с женщинами, ни с близкими людьми, потому что знает о них все: ему невозможно сделать сюрприз, его нельзя обмануть, любой посторонний запах оттолкнет его от самого романтического свидания. У него сложная, но интересная жизнь...--Качество : HDTVRip-AVC 1080p
Формат: MPEG-4
Видео кодек: H264
Видео: 5534Кбит/сек,1920х1080(16.9),в 25.000кадр/сек,AVC([email protected])(1Ref Frames)
Аудио кодек: AAC
Аудио Russian Dolby Digital 5.1:307Кбит/сек,44.1КГц,6каналов,AAC,(Version4)(LC)--

Доп. информация:

Звуковая дорожка сделана путем наложения чистого голоса озвучивателей на центральный канал оригинальной дорожки. Качество идентично звуковой дорожке.
--

MediaInfo

General
Полное имя : D:\С Е Р И А Л Ы\Нюхач\NYUHACH_2013_RUS[1kanal_Russia]_DD5.1_x264_Nikolai.Baranov_HDTVRip-AVC__(1080p)\NYUHACH_E01_2013_RUS[1kanal_Russia]_DD5.1_x264_Nikolai.Baranov_HDTVRip-AVC__(1080p).mp4
Формат : MPEG-4
Профиль формата : Base Media
Идентификатор кодека : isom
Размер файла : 2.07 GiB
Продолжительность : 50mn 40s
Режим общего битрейта : Variable
Общий поток : 5 845 Kbps
Дата кодирования : UTC 2013-12-17 07:20:23
Дата пометки : UTC 2013-12-17 07:20:23
Программа кодирования : Lavf51.12.1
Video
Идентификатор : 1
Формат : AVC
Формат/Информация : Advanced Video Codec
Профиль формата : [email protected]
Параметр CABAC формата : No
Параметр ReFrames формата : 1 frame
Параметр GOP формата : M=1, N=12
Идентификатор кодека : avc1
Идентификатор кодека/Информация : Advanced Video Coding
Продолжительность : 50mn 39s
Вид битрейта : Variable
Битрейт : 5 534 Kbps
Максимальный битрейт : 7 950 Kbps
Ширина : 1 920 pixels
Высота : 1 080 pixels
Соотношение сторон : 16:9
Режим частоты кадров : Constant
Частота кадров : 25.000 fps
Частота кадров в оригинале : 24.000 fps
Цветовое пространство : YUV
Субдискретизация насыщенности : 4:2:0
Битовая глубина : 8 bits
Тип развёртки : Progressive
Бит/(Пиксели*Кадры) : 0.107
Размер потока : 1.96 GiB (95%)
Дата кодирования : UTC 2013-12-17 07:20:23
Дата пометки : UTC 2013-12-17 07:20:23
Audio
Идентификатор : 2
Формат : AAC
Формат/Информация : Advanced Audio Codec
Профиль формата : LC
Идентификатор кодека : 40
Продолжительность : 50mn 40s
Вид битрейта : Variable
Битрейт : 307 Kbps
Каналы : 6 channels
Расположение каналов : Front: L C R, Side: L R, LFE
Частота : 44.1 KHz
Метод сжатия : Lossy
Размер потока : 111 MiB (5%)
Язык : Russian
Дата кодирования : UTC 2013-12-17 07:20:23
Дата пометки : UTC 2013-12-17 07:20:23
--

Скриншоты

-- ---Релиз от: Nikolai.Baranov -
Яндекс.Метрика
Рейтинг@Mail.ru