В постели с врагом / Sleeping With the Enemy (Джозеф Рубен)[1991, триллер, драма, BDRip-AVC] от 0ptimus | D, P, P2, A

 

Создавать темы 23-Дек-2013 17:02

Информация о фильме
Название: В постели с врагом
Оригинальное название: Sleeping With the Enemy
Год выхода: 1991
Жанр: триллер, драма
Режиссер: Джозеф Рубен
В ролях: Джулия Робертс, Патрик Бергин, Кевин Андерсон, Элизабет Лоуренс, Кайл Сикор, Клодетт Невинс, Тони Абатемарко, Марита Герати, Харли Вентон, Нэнси Фиш, Сэнди Шакелфорд, Бонни Джонсон, Грэхэм Харингтон, Джон Уорд, Шарон Дж. Робинсон, Джон Линдли, Пэтт Нодэй, Рон Риди
О фильме:
Лора и Мартин женаты уже четыре года. Они похожи на счастливых и удачливых супругов. Но никто не знает, что Лора боится войти в дом, боится остаться с мужем наедине. Как только они переступают порог, Мартин превращается в агрессивного и придирчивого женоненавистника. И вот однажды Лора понимает, что лучше смерть, чем жизнь в постоянном страхе. Она инсценирует свою гибель. Во время морской прогулки Лаура случайно падает за борт. Попытки Мартина спасти жену оканчиваются неудачей. Однако Лаура остается в живых и начинает новую жизнь под именем Сары Уотерс в небольшом городке в штате Айова. Здесь Лаура-Сара встречает новую любовь и переезжает в маленький живописный городок, где все дышит спокойствием. Но идиллия длится недолго — жуткое прошлое опять врывается в ее жизнь, встреча с Мартином еще впереди…

Страна: США
Студия: Century Fox
Продолжительность: 01:37:38
Перевод: Дублированный, профессиональный многоголосый, профессиональный двухголосый, авторский
Файл
Кодек: h.264
Качество: BDRip-AVC
Видео: 2429 Кбит/с, 1024x554, 23.976 кадр/с
Звук:
• №1: Русский (АС3, 6 ch, 384 Кбит/с) Дублированный [BD CEE]
• №2: Английский (АС3, 6 ch, 384 Кбит/с)
Отдельно:
• №3: Русский (АС3, 6 ch, 384 Кбит/с) Профессиональный двухголосый [НТВ+]
• №4: Русский (АС3, 2 ch, 192 Кбит/с) Профессиональный многоголосый [Лазер-Видео]
• №5: Русский (АС3, 2 ch, 192 Кбит/с) Авторский одноголосый [Юрий Живов]
• №6: Русский (АС3, 6 ch, 384 Кбит/с) Авторский одноголосый [Алексей Попов]
Субтитры: Русские, английские

MediaInfo

---------------------------------------------------------------------
x264 [info]: frame I:783 Avg QP:16.00 size: 68216
x264 [info]: frame P:29738 Avg QP:18.85 size: 25837
x264 [info]: frame B:109938 Avg QP:20.38 size: 8687
---------------------------------------------------------------------
Полное имя : Sleeping.With.the.Enemy.1991.x264.BDRip.(AVC).0ptimus.BDRip.(AVC).0ptimus.mkv
Формат : Matroska
Версия формата : Version 4 / Version 2
Размер файла : 2,18 Гбайт
Продолжительность : 1 ч. 37 м.
Общий поток : 3196 Кбит/сек
Название фильма : В постели с врагом | Sleeping With the Enemy [1991] -=BDRip (AVC) by 0ptimus=-
Дата кодирования : UTC 2013-12-21 07:37:30
Программа кодирования : mkvmerge v6.6.0 ('The Edge Of The In Between') built on Dec 1 2013 17:55:00
Библиотека кодирования : libebml v1.3.0 + libmatroska v1.4.1
Видео
Идентификатор : 1
Формат : AVC
Формат/Информация : Advanced Video Codec
Профиль формата : [email protected]
Параметр CABAC формата : Да
Параметр ReFrames формата : 9 кадров
Идентификатор кодека : V_MPEG4/ISO/AVC
Продолжительность : 1 ч. 37 м.
Битрейт : 2429 Кбит/сек
Ширина : 1024 пикселя
Высота : 554 пикселя
Соотношение сторон : 16:9
Частота кадров : 23,976 кадра/сек
Цветовое пространство : YUV
Субдискретизация насыщенности : 4:2:0
Битовая глубина : 8 бит
Тип развёртки : Прогрессивная
Бит/(Пиксели*Кадры) : 0.179
Размер потока : 1,61 Гбайт (74%)
Заголовок : Rip by 0ptimus
Библиотека кодирования : x264 core 133 r2334 a3ac64b
Настройки программы : cabac=1 / ref=9 / deblock=1:-3:-3 / analyse=0x3:0x113 / me=umh / subme=11 / psy=1 / psy_rd=1.00:0.20 / mixed_ref=1 / me_range=32 / chroma_me=1 / trellis=2 / 8x8dct=1 / cqm=0 / deadzone=21,11 / fast_pskip=0 / chroma_qp_offset=-3 / threads=3 / lookahead_threads=1 / sliced_threads=0 / nr=0 / decimate=0 / interlaced=0 / bluray_compat=0 / constrained_intra=0 / bframes=11 / b_pyramid=2 / b_adapt=2 / b_bias=0 / direct=3 / weightb=1 / open_gop=0 / weightp=2 / keyint=240 / keyint_min=23 / scenecut=40 / intra_refresh=0 / rc_lookahead=40 / rc=2pass / mbtree=0 / bitrate=2429 / ratetol=1.0 / qcomp=0.60 / qpmin=0 / qpmax=69 / qpstep=4 / cplxblur=20.0 / qblur=0.5 / vbv_maxrate=50000 / vbv_bufsize=50000 / nal_hrd=none / ip_ratio=1.40 / pb_ratio=1.30 / aq=1:1.00
Язык : English
Аудио #1
Идентификатор : 2
Формат : AC-3
Формат/Информация : Audio Coding 3
Расширение режима : CM (complete main)
Идентификатор кодека : A_AC3
Продолжительность : 1 ч. 37 м.
Вид битрейта : Постоянный
Битрейт : 384 Кбит/сек
Каналы : 6 каналов
Расположение каналов : Front: L C R, Side: L R, LFE
Частота : 48,0 КГц
Битовая глубина : 16 бит
Метод сжатия : С потерями
Размер потока : 268 Мбайт (12%)
Заголовок : Дублированный AC3 5.1 @ 384 kbps
Язык : Russian
Аудио #2
Идентификатор : 3
Формат : AC-3
Формат/Информация : Audio Coding 3
Расширение режима : CM (complete main)
Идентификатор кодека : A_AC3
Продолжительность : 1 ч. 37 м.
Вид битрейта : Постоянный
Битрейт : 384 Кбит/сек
Каналы : 6 каналов
Расположение каналов : Front: L C R, Side: L R, LFE
Частота : 48,0 КГц
Битовая глубина : 16 бит
Метод сжатия : С потерями
Размер потока : 268 Мбайт (12%)
Заголовок : AC3 5.1 @ 384 kbps
Язык : English
Текст #1
Идентификатор : 4
Формат : UTF-8
Идентификатор кодека : S_TEXT/UTF8
Идентификатор кодека/Информация : UTF-8 Plain Text
Язык : Russian
Текст #2
Идентификатор : 5
Формат : UTF-8
Идентификатор кодека : S_TEXT/UTF8
Идентификатор кодека/Информация : UTF-8 Plain Text
Язык : English
Меню
00:00:00.000 : :Chapter 01
00:05:51.642 : :Chapter 02
00:13:00.488 : :Chapter 03
00:19:46.268 : :Chapter 04
00:25:34.658 : :Chapter 05
00:29:20.425 : :Chapter 06
00:34:30.610 : :Chapter 07
00:43:31.150 : :Chapter 08
00:46:52.810 : :Chapter 09
00:54:36.815 : :Chapter 10
01:05:05.943 : :Chapter 11
01:13:07.674 : :Chapter 12
01:18:44.261 : :Chapter 13
01:24:24.684 : :Chapter 14
01:30:35.430 : :Chapter 15
01:35:00.486 : :Chapter 16
01:37:38.060 : :Chapter 17

Скриншоты

Релиз от:
Яндекс.Метрика
Рейтинг@Mail.ru