Комната смерти / The Killing Room (Джонатан Либесман / Jonathan Liebesman) [2008 г., триллер, детектив, Blu-Ray Rip, 720p] Dub Sub Eng + Original (Eng)

 

Создавать темы 23-Дек-2013 16:46

-Комната смерти / The Killing Room-- Производство: США
Год выпуска: 2008 г.
Жанр: триллер, детектив
Продолжительность: 01:33:00
Мировая премьера: 16 января 2009
Российская премьера: 12 августа 2010
Дата выхода DVD: 2 сентября 2010
Перевод: Профессиональный (полное дублирование)
Оригинальный аудиопоток: английский
Режиссер: Джонатан Либесман / Jonathan Liebesman-В ролях: Ник Кэннон, Клеа ДюВалл, Тимоти Хаттон, Клоэ Севиньи, Петер Стормаре, Ши Уигхэм, Ануп Каур Сиканд, Билл Стинчкомб, Миде Паттон, Люк Секстон-Описание: Несколько незнакомых человек, согласившихся принять участие в новой правительственной программе, понимают, что участвуют в жестокой игре на выживание.-
Качество видео: Blu-Ray Rip
Контейнер: MKV
Стандарт разрешения: 720p
Видео кодек: H.264
Аудио кодек: AC3
Видео: 1280x546 (2.35:1) 5859 Kbps 23.976fps
Аудио: AC3, 384kbps, 6ch, 48000Hz Rus
Аудио #2: DTS, 1509kbps, 6ch, 48000Hz Eng
Cубтитры: английские
Формат субтитров: softsub (SRT)

Media Info

General
Unique ID : 212811561432147350567307835399804156380 (0xA01A040FE2C1ECC79FB6769796D9F9DC)
Complete name : F:\Videos\The.Killing.Room.2009.720p.BluRay.Rus.Eng.HDCLUB-SbR.mkv
Format : Matroska
Format version : Version 4 / Version 2
File size : 5.15 GiB
Duration : 1h 33mn
Overall bit rate : 7 910 Kbps
Movie name : The Killing Room (2009) - Release for HDCLUB by SbR
Encoded date : UTC 2013-08-04 05:49:59
Writing application : mkvmerge v6.2.0 ('Promised Land') built on Apr 28 2013 12:22:01
Writing library : libebml v1.3.0 + libmatroska v1.4.0
Attachment : Yes / Yes
Video
ID : 1
Format : AVC
Format/Info : Advanced Video Codec
Format profile : [email protected]
Format settings, CABAC : Yes
Format settings, ReFrames : 11 frames
Codec ID : V_MPEG4/ISO/AVC
Bit rate : 5 859 Kbps
Width : 1 280 pixels
Height : 546 pixels
Display aspect ratio : 2.35:1
Frame rate mode : Variable
Original frame rate : 23.976 fps
Color space : YUV
Chroma subsampling : 4:2:0
Bit depth : 8 bits
Scan type : Progressive
Title : Release for HDCLUB
Writing library : x264 core 135 r2345kMod f0c1c53
Encoding settings : cabac=1 / ref=11 / deblock=1:-2:-2 / analyse=0x3:0x113 / me=umh / subme=11 / psy=1 / fade_compensate=0.00 / psy_rd=1.00:0.00 / mixed_ref=1 / me_range=48 / chroma_me=1 / trellis=2 / 8x8dct=1 / cqm=0 / deadzone=21,11 / fast_pskip=1 / chroma_qp_offset=-2 / threads=12 / lookahead_threads=3 / sliced_threads=0 / nr=0 / decimate=1 / interlaced=0 / bluray_compat=0 / constrained_intra=0 / bframes=12 / b_pyramid=2 / b_adapt=2 / b_bias=0 / direct=3 / weightb=1 / open_gop=0 / weightp=2 / keyint=250 / keyint_min=23 / scenecut=40 / intra_refresh=0 / rc_lookahead=60 / rc=crf / mbtree=0 / crf=17.0000 / qcomp=0.60 / qpmin=0 / qpmax=69 / qpstep=4 / vbv_maxrate=62500 / vbv_bufsize=78125 / crf_max=0.0 / nal_hrd=none / ip_ratio=1.40 / pb_ratio=1.30 / aq=1:0.80
Language : English
Default : Yes
Forced : No
Color primaries : BT.709
Transfer characteristics : BT.709
Matrix coefficients : BT.709
Audio #1
ID : 2
Format : AC-3
Format/Info : Audio Coding 3
Mode extension : CM (complete main)
Format settings, Endianness : Big
Codec ID : A_AC3
Duration : 1h 33mn
Bit rate mode : Constant
Bit rate : 384 Kbps
Channel count : 6 channels
Channel positions : Front: L C R, Side: L R, LFE
Sampling rate : 48.0 KHz
Bit depth : 16 bits
Compression mode : Lossy
Stream size : 256 MiB (5%)
Title : Dub
Language : Russian
Default : Yes
Forced : No
Audio #2
ID : 3
Format : DTS
Format/Info : Digital Theater Systems
Mode : 16
Format settings, Endianness : Big
Codec ID : A_DTS
Duration : 1h 33mn
Bit rate mode : Constant
Bit rate : 1 509 Kbps
Channel count : 6 channels
Channel positions : Front: L C R, Side: L R, LFE
Sampling rate : 48.0 KHz
Bit depth : 16 bits
Compression mode : Lossy
Stream size : 1 007 MiB (19%)
Language : English
Default : No
Forced : No
Text
ID : 4
Format : UTF-8
Codec ID : S_TEXT/UTF8
Codec ID/Info : UTF-8 Plain Text
Language : English
Default : No
Forced : No
Menu
00:00:00.000 : en:Chapter 1
00:01:36.721 : en:Chapter 2
00:07:20.231 : en:Chapter 3
00:12:47.223 : en:Chapter 4
00:19:24.037 : en:Chapter 5
00:25:02.708 : en:Chapter 6
00:31:41.774 : en:Chapter 7
00:37:48.975 : en:Chapter 8
00:43:04.998 : en:Chapter 9
00:48:09.969 : en:Chapter 10
00:53:42.719 : en:Chapter 11
00:59:54.340 : en:Chapter 12
01:04:49.302 : en:Chapter 13
01:10:45.658 : en:Chapter 14
01:18:45.804 : en:Chapter 15
01:26:41.863 : en:Chapter 16

Скриншоты

Яндекс.Метрика
Рейтинг@Mail.ru