Пэн: Путешествие в Нетландию / Pan (Джо Райт / Joe Wright) [2015 г., фэнтези, приключения, семейный, BDRip, 1080p] Dub (Rus, Ukr) + Original (Eng) + Sub (Rus, Ukr, Eng)

 

Создавать темы 31-Дек-2015 22:46

-Пэн: Путешествие в Нетландию / Pan
«У каждой легенды есть своё начало»
-- Производство: США, Великобритания, Австралия
Год выпуска: 2015 г.
Жанр: фэнтези, приключения, семейный
Продолжительность: 01:51:32Перевод: Профессиональный (полное дублирование) [iTunes]
Перевод 2: Профессиональный (полное дублирование) [iTunes]
Оригинальный аудиопоток: английскийРежиссер: Джо Райт / Joe Wright-В ролях: Хью Джекман, Леви Миллер, Гаррет Хедлунд, Руни Мара, Адиль Ахтар, Нонсо Анози, Аманда Сайфред, Кэти Бёрк, Льюис МакДугалл, Кара Делевинь-Описание: История о сироте, который попал в волшебную Нетландию, где его поджидали опасные приключения. Там он понял, что его судьба - стать героем, который навсегда останется известен под именем Питер Пэн.-Качество видео: BDRip
Контейнер: MKV
Стандарт разрешения: 1080p
Видео кодек: H.264/AVC
Аудио кодек: AC3, DTS
Видео: 1920x800, 23.976 fps, ~15,5 Mbps avg
Аудио: Russian: 48 kHz, AC3, 3/2 (L,C,R,l,r) + LFE ch, ~384.00 kbps avg |Дубляж, iTunes|
Аудио #2: Ukrainian: 48 kHz, AC3, 2 ch, ~192.00 kbps avg |Дубляж, iTunes|
Аудио #3: English: 48 kHz, DTS, 3/2 (L,C,R,l,r) + LFE ch, ~1510.00 kbps avgCубтитры: Russian (Full-length, Forced), Ukrainian (Forced), English

Доп.Информация:

General
Unique ID                   : 217574378818691576806347696226534117375 (0xA3AF4D16D851C9D2B8D1A39B88274FFF)
Complete name               : D:\Uploads\Pirat.Ca\Pan.2015.1080p.BDRip.Rus.Ukr.Eng.mkv
Format                      : Matroska
Format version              : Version 2
File size                   : 14.0 GiB
Duration                    : 1h 51mn
Overall bit rate            : 18.0 Mbps
Encoded date                : UTC 2015-12-31 10:05:12
Writing application         : mkvmerge v7.9.0 ('Birds') 64bit
Writing library             : libebml v1.3.1 + libmatroska v1.4.2
Attachements                : Cover.png / cover.jpgVideo
ID                          : 1
Format                      : AVC
Format/Info                 : Advanced Video Codec
Format profile              : [email protected]
/*  */
Format settings, CABAC      : Yes
Format settings, ReFrames   : 5 frames
Codec ID                    : V_MPEG4/ISO/AVC
Duration                    : 1h 51mn
Bit rate                    : 15.5 Mbps
Width                       : 1 920 pixels
Height                      : 800 pixels
Display aspect ratio        : 2.40:1
Frame rate mode             : Constant
Frame rate                  : 23.976 fps
Color space                 : YUV
Chroma subsampling          : 4:2:0
Bit depth                   : 8 bits
Scan type                   : Progressive
Bits/(Pixel*Frame)          : 0.421
Stream size                 : 12.1 GiB (86%)
Writing library             : x264 core 142 r2431+42 c69a006 tMod [[email protected] X86_64]
Encoding settings           : cabac=1 / ref=5 / deblock=1:-3:-3 / analyse=0x3:0x133 / me=umh / subme=11 / psy=1 / fade_compensate=0.00 / psy_rd=1.05:0.00 / mixed_ref=1 / me_range=32 / chroma_me=1 / trellis=2 / 8x8dct=1 / cqm=0 / deadzone=21,11 / fast_pskip=1 / chroma_qp_offset=-2 / threads=12 / lookahead_threads=2 / sliced_threads=0 / nr=0 / decimate=0 / interlaced=0 / bluray_compat=0 / constrained_intra=0 / fgo=0 / bframes=8 / b_pyramid=2 / b_adapt=2 / b_bias=0 / direct=3 / weightb=1 / open_gop=0 / weightp=2 / keyint=250 / keyint_min=23 / scenecut=40 / intra_refresh=0 / rc_lookahead=60 / rc=crf / mbtree=0 / crf=16.6000 / qcomp=0.65 / qpmin=0:0:0 / qpmax=69:69:69 / qpstep=4 / vbv_maxrate=62500 / vbv_bufsize=78125 / crf_max=0.0 / nal_hrd=none / filler=0 / ip_ratio=1.24 / pb_ratio=1.18 / aq=3:0.75 / aq-sensitivity=10.00 / aq-factor=1.00:1.00:1.00 / aq2=0 / aq3=0 / zones=82110,82940,crf=13.6/83327,83486,crf=15/99685,99722,crf=14.6/101980,103140,crf=15/108391,110950,crf=15.6/111830,111919,crf=15.6/112804,114396,crf=13.5/152880,160035,crf=23
Language                    : English
Default                     : Yes
Forced                      : No
Matrix coefficients         : BT.709
Color range                 : LimitedAudio #1
ID                          : 2
Format                      : AC-3
Format/Info                 : Audio Coding 3
Mode extension              : CM (complete main)
Format settings, Endianness : Big
Codec ID                    : A_AC3
Duration                    : 1h 51mn
Bit rate mode               : Constant
Bit rate                    : 384 Kbps
Channel(s)                  : 6 channels
Channel positions           : Front: L C R, Side: L R, LFE
Sampling rate               : 48.0 KHz
Bit depth                   : 16 bits
Compression mode            : Lossy
Stream size                 : 306 MiB (2%)
Title                       : iTunes
Language                    : Russian
Default                     : Yes
Forced                      : NoAudio #2
ID                          : 3
Format                      : AC-3
Format/Info                 : Audio Coding 3
Format profile              : Dolby Digital
Mode extension              : CM (complete main)
Format settings, Endianness : Big
Codec ID                    : A_AC3
Duration                    : 1h 51mn
Bit rate mode               : Constant
Bit rate                    : 192 Kbps
Channel(s)                  : 2 channels
Channel positions           : Front: L R
Sampling rate               : 48.0 KHz
Bit depth                   : 16 bits
Compression mode            : Lossy
Stream size                 : 153 MiB (1%)
Title                       : iTunes
Language                    : Ukrainian
Default                     : No
Forced                      : NoAudio #3
ID                          : 4
Format                      : DTS
Format/Info                 : Digital Theater Systems
Mode                        : 16
Format settings, Endianness : Big
Codec ID                    : A_DTS
Duration                    : 1h 51mn
Bit rate mode               : Constant
Bit rate                    : 1 509 Kbps
Channel(s)                  : 6 channels
Channel positions           : Front: L C R, Side: L R, LFE
Sampling rate               : 48.0 KHz
Bit depth                   : 24 bits
Compression mode            : Lossy
Stream size                 : 1.18 GiB (8%)
Language                    : English
Default                     : No
Forced                      : NoAudio #4
ID                          : 5
Format                      : AC-3
Format/Info                 : Audio Coding 3
Mode extension              : CM (complete main)
Format settings, Endianness : Big
Codec ID                    : A_AC3
Duration                    : 1h 51mn
Bit rate mode               : Constant
Bit rate                    : 64.0 Kbps
Channel(s)                  : 2 channels
Channel positions           : Front: L R
Sampling rate               : 48.0 KHz
Bit depth                   : 16 bits
Compression mode            : Lossy
Stream size                 : 51.1 MiB (0%)
Title                       : Commentary with Director Joe Wright
Language                    : English
Default                     : No
Forced                      : NoText #1
ID                          : 6
Format                      : UTF-8
Codec ID                    : S_TEXT/UTF8
Codec ID/Info               : UTF-8 Plain Text
Title                       : Forced
Language                    : Russian
Default                     : Yes
Forced                      : NoText #2
ID                          : 7
Format                      : UTF-8
Codec ID                    : S_TEXT/UTF8
Codec ID/Info               : UTF-8 Plain Text
Title                       : Full
Language                    : Russian
Default                     : No
Forced                      : NoText #3
ID                          : 8
Format                      : UTF-8
Codec ID                    : S_TEXT/UTF8
Codec ID/Info               : UTF-8 Plain Text
Title                       : Forced
Language                    : Ukrainian
Default                     : No
Forced                      : NoText #4
ID                          : 9
Format                      : UTF-8
Codec ID                    : S_TEXT/UTF8
Codec ID/Info               : UTF-8 Plain Text
Language                    : English
Default                     : No
Forced                      : NoText #5
ID                          : 10
Format                      : UTF-8
Codec ID                    : S_TEXT/UTF8
Codec ID/Info               : UTF-8 Plain Text
Title                       : SDH
Language                    : English
Default                     : No
Forced                      : NoMenu
00:00:00.000                : en:00:00:00.000
00:10:28.419                : en:00:10:28.419
00:19:45.851                : en:00:19:45.851
00:31:07.282                : en:00:31:07.282
00:39:14.060                : en:00:39:14.060
00:48:27.863                : en:00:48:27.863
01:00:07.562                : en:01:00:07.562
01:09:29.374                : en:01:09:29.374
01:20:12.808                : en:01:20:12.808
01:30:02.897                : en:01:30:02.897
01:39:51.027                : en:01:39:51.027
01:43:05.888                : en:01:43:05.888

Скриншот c названием фильма

Скриншоты

Яндекс.Метрика
Рейтинг@Mail.ru