[ Сегодня на трекере фрилич! Идет свободное скачивание без начисления Download ]

Новогоднее обращение президента России В.В. Путина (2015.12.31) HDTV [H.264/1080i-LQ]

 

Создавать темы 31-Дек-2015 20:35

- Новогоднее обращение президента России В.В. Путина (2015.12.31) HDTV [H.264/1080i-LQ]- Телекомпания: Первый канал HD
Жанр: Документальный
Описание:
Новогоднее обращение Президента Российской Федерации В. В. Путина
Продолжительность: 00:08:32
Качество видео: HDTV
Видео: AVC, 1920x1080 (16:9), 25.000 fps, 7 044 Kbps (0.136 bit/pixel)
Аудио 1: AC-3, 48.0 KHz, 6 ch, 384 Kbps, CBR (Russian)
Аудио 2: MP2, 48.0 KHz, 2 ch, 192 Kbps, CBR (Russian)

Mediainfo:

Формат                                   : MPEG-TS
Размер файла                             : 490 Мбайт
Продолжительность                        : 8 м. 32 с.
Режим общего битрейта                    : Переменный
Общий поток                              : 8022 Кбит/сек
Видео
Идентификатор                            : 1904 (0x770)
Идентификатор меню                       : 904 (0x388)
Формат                                   : AVC
Формат/Информация                        : Advanced Video Codec
Профиль формата                          : [email protected]
Параметр CABAC формата                   : Да
Параметр ReFrames формата                : 3 кадра
Параметр GOP формата                     : M=4, N=32
Идентификатор кодека                     : 27
Продолжительность                        : 8 м. 32 с.
Битрейт                                  : 7044 Кбит/сек
Ширина                                   : 1920 пикселей
Высота                                   : 1080 пикселей
Соотношение сторон                       : 16:9
Частота кадров                           : 25,000 кадров/сек
Стандарт вещания                         : Component
Цветовое пространство                    : YUV
Субдискретизация насыщенности            : 4:2:0
Битовая глубина                          : 8 бит
Тип развёртки                            : Чересстрочная
Порядок развёртки                        : Верхнее поле первое
Бит/(Пиксели*Кадры)                      : 0.136
Размер потока                            : 430 Мбайт (88%)
Цветовой диапазон                        : Limited
Основные цвета                           : BT.709
Характеристики трансфера                 : BT.709
Коэффициенты матрицы                     : BT.709
Аудио #1
Идентификатор                            : 2904 (0xB58)
Идентификатор меню                       : 904 (0x388)
Формат                                   : AC-3
Формат/Информация                        : Audio Coding 3
Расширение режима                        : CM (complete main)
Параметр Endianness формата              : Big
Идентификатор кодека                     : 6
Продолжительность                        : 8 м. 32 с.
Вид битрейта                             : Постоянный
Битрейт                                  : 384 Кбит/сек
Каналы                                   : 6 каналов
Расположение каналов                     : Front: L C R, Side: L R, LFE
Частота                                  : 48,0 КГц
Битовая глубина                          : 16 бит
Метод сжатия                             : С потерями
Размер потока                            : 23,5 Мбайт (5%)
Язык                                     : Russian
Аудио #2
Идентификатор                            : 2905 (0xB59)
Идентификатор меню                       : 904 (0x388)
Формат                                   : MPEG Audio
Версия формата                           : Version 1
Профиль формата                          : Layer 2
Идентификатор кодека                     : 3
Продолжительность                        : 8 м. 32 с.
Вид битрейта                             : Постоянный
Битрейт                                  : 192 Кбит/сек
Каналы                                   : 2 канала
Частота                                  : 48,0 КГц
Метод сжатия                             : С потерями
Размер потока                            : 11,7 Мбайт (2%)
Язык                                     : Russian
Скриншоты:
Время раздачи: 24/7. До первых 5 скачавших.

Создавать темы 01-Янв-2016 12:26 (спустя 15 часов)

Запрещенынный текст

Нарушение от vladios13


3.2.12 Проявлять расовую и национальную неприязнь, пропагандировать терроризм, экстремизм, наркотики и прочие темы, несовместимые с общепринятыми законами морали и приличия.
Яндекс.Метрика
Рейтинг@Mail.ru