[ Сегодня на трекере фрилич! Идет свободное скачивание без начисления Download ]

Viasat Nature: Лето белых медведей / Polar Bear Summer (Annette & Klaus Scheurich and Matthias Breiter) [2015 г., Документальный, путешествия, флора, фауна, SATRip]

 

Создавать темы 31-Дек-2015 13:08

-Лето белых медведей / Polar Bear Summer- Год выпуска: 2015
Страна: Германия, Marco Polo Film AG
Жанр: Документальный, путешествия, флора, фауна
Продолжительность: 00:52:07
Перевод: Профессиональный (одноголосый)
Режиссер: Annette & Klaus Scheurich and Matthias Breiter-Описание: Когда для всех обитателей Арктики наступает благодатная пора - белые медведи вынужденные бороться за выживание. Они великолепно приспособлены для жизни среди льда и снега, но в теплое время года сталкиваются со многими трудностями. В этой программе вы увидите, как белые медведи выживают в неблагоприятных условиях.-Доп. информация: переведено и озвучено на студии "SDI Media", перевод Ольги Юлдашевой, текст читал Роман Антанович-Качество: SATRip
Контейнер: AVI
Видео кодек: XviD
Аудио кодек: AC3
Видео: 720x400 25fps ~1950 Kbps
Аудио: AC3 2ch, 48kHz, 192 kbps-

MediaInfo

Format : AVI
Format/Info : Audio Video Interleave
File size : 803 MiB
Duration : 52mn 7s
Overall bit rate : 2 154 Kbps
Writing application : VirtualDubMod 1.5.10.3 | www.virtualdub-fr.org || (build 2550/release)
Writing library : VirtualDubMod build 2550/release
Video
ID : 0
Format : MPEG-4 Visual
Format profile : Advanced [email protected]
Format settings, BVOP : 1
Format settings, QPel : No
Format settings, GMC : No warppoints
Format settings, Matrix : Default (MPEG)
Codec ID : DX50
Codec ID/Hint : DivX 5
Duration : 52mn 7s
Bit rate : 1 952 Kbps
Width : 720 pixels
Height : 400 pixels
Display aspect ratio : 16:9
Frame rate : 25.000 fps
Color space : YUV
Chroma subsampling : 4:2:0
Bit depth : 8 bits
Scan type : Progressive
Compression mode : Lossy
Bits/(Pixel*Frame) : 0.271
Stream size : 728 MiB (91%)
Writing library : XviD 1.2.1 (UTC 2008-12-04)
Audio
ID : 1
Format : AC-3
Format/Info : Audio Coding 3
Mode extension : CM (complete main)
Format settings, Endianness : Big
Codec ID : 2000
Duration : 52mn 7s
Bit rate mode : Constant
Bit rate : 192 Kbps
Channel(s) : 2 channels
Channel positions : Front: L R
Sampling rate : 48.0 KHz
Bit depth : 16 bits
Compression mode : Lossy
Stream size : 71.6 MiB (9%)
Alignment : Split accross interleaves
Interleave, duration : 40 ms (1.00 video frame)
Interleave, preload duration : 500 ms
-Скриншоты--Благодарность за предоставленный рип: -Время раздачи: 24/7 (круглосуточно)-
Яндекс.Метрика
Рейтинг@Mail.ru