[ Сегодня на трекере фрилич! Идет свободное скачивание без начисления Download ]

Отчий дом (Лев Кулиджанов) [1959, киноповесть, SATRip-AVC]

 

Создавать темы 29-Дек-2015 14:05

Отчий дом- Жанр: киноповесть
Год выпуска: 1959
Продолжительность: 01:33:56-Режиссёр: Лев Кулиджанов-В ролях:
Людмила Марченко, Валентин Зубков, Вера Кузнецова, Николай Новлянский, Нонна Мордюкова, Люсьена Овчинникова, Петр Кирюткин, Пётр Алейников, Елена Максимова
Описание:
Приемная дочь доктора Скворцова, узнав, что ее мать Наталья Авдеевна жива, поехала к ней в деревню на каникулы. Женщина не знала, как приблизить к себе дочь. Встречи в колхозе с интересными людьми заставили Таню о многом подумать и многое пережить.-Сэмпл | Кинопоиск-Качество видео: SATRip-AVC, благодарности Cheef mate
Формат видео: MKV
Видео: x264 ([email protected]); [email protected], Display aspect ratio 1.281:1, 25.000 fps, 2071 Kbps
Аудио: AC-3; 16 bit 48 Khz; 2.0ch 192 Kbps; CBR

MediaInfo

-

x264 log

avs [info]: 688x572p 16:15 @ 25/1 fps (cfr)
x264 [info]: using SAR=16/15
x264 [info]: using cpu capabilities: MMX2 SSE2Fast SSSE3 SSE4.2
x264 [info]: profile High, level 4.1
x264 [info]: frame I:749 Avg QP:19.25 size: 51688
x264 [info]: frame P:30261 Avg QP:21.07 size: 23270
x264 [info]: frame B:109893 Avg QP:23.57 size: 6520
x264 [info]: consecutive B-frames: 1.0% 2.0% 6.9% 24.7% 23.0% 36.9% 4.1% 1.0% 0.3% 0.1%
x264 [info]: mb I I16..4: 5.2% 75.7% 19.1%
x264 [info]: mb P I16..4: 0.2% 10.3% 1.6% P16..4: 34.3% 36.7% 13.3% 2.0% 0.2% skip: 1.5%
x264 [info]: mb B I16..4: 0.0% 1.4% 0.1% B16..8: 35.1% 17.9% 2.2% direct: 6.8% skip:36.4% L0:31.7% L1:41.0% BI:27.3%
x264 [info]: 8x8 transform intra:85.0% inter:59.0%
x264 [info]: coded y,uvDC,uvAC intra: 97.4% 33.4% 1.3% inter: 30.4% 7.7% 0.1%
x264 [info]: i16 v,h,dc,p: 21% 11% 10% 58%
x264 [info]: i8 v,h,dc,ddl,ddr,vr,hd,vl,hu: 14% 10% 6% 8% 12% 13% 12% 13% 13%
x264 [info]: i4 v,h,dc,ddl,ddr,vr,hd,vl,hu: 16% 8% 3% 7% 14% 15% 13% 11% 11%
x264 [info]: i8c dc,h,v,p: 19% 51% 22% 7%
x264 [info]: Weighted P-Frames: Y:42.0% UV:0.3%
x264 [info]: ref P L0: 42.2% 15.3% 14.7% 6.3% 4.0% 3.3% 2.8% 1.8% 1.5% 1.4% 1.3% 1.2% 1.1% 1.1% 1.1% 0.9%
x264 [info]: ref B L0: 86.3% 7.7% 1.7% 1.0% 0.6% 0.6% 0.4% 0.3% 0.2% 0.3% 0.2% 0.2% 0.2% 0.1% 0.1%
x264 [info]: ref B L1: 97.3% 2.7%
x264 [info]: kb/s:2071.43
x264 [total]: encoded 140903 frames, 13.40 fps, 2071.43 kb/s
-General
Unique ID : 238455029571874056295782777182192204863 (0xB364C4A7B89D1C45BE38D6522414FC3F)
Complete name : Отчий дом.1959.mkv
Format : Matroska
Format version : Version 2
File size : 1.49 GiB
Duration : 1h 33mn
Overall bit rate : 2 265 Kbps
Movie name : «Отчий дом»
Encoded date : UTC 2015-12-28 18:59:43
Writing application : mkvmerge v5.8.0 ('No Sleep / Pillow') built on Sep 2 2012 15:37:04
Writing library : libebml v1.2.3 + libmatroska v1.3.0
Comment : SATRip-AVC
Originally released : December 28th 2015
Encoded by : george$t®
Video
ID : 1
Format : AVC
Format/Info : Advanced Video Codec
Format profile : [email protected]
Format settings, CABAC : Yes
Format settings, ReFrames : 16 frames
Codec ID : V_MPEG4/ISO/AVC
Duration : 1h 33mn
Bit rate : 2 028 Kbps
Width : 688 pixels
Height : 572 pixels
Display aspect ratio : 1.281
Original display aspect rat : 1.283
Frame rate mode : Constant
Frame rate : 25.000 fps
Color space : YUV
Chroma subsampling : 4:2:0
Bit depth : 8 bits
Scan type : Progressive
Bits/(Pixel*Frame) : 0.206
Stream size : 1.33 GiB (90%)
Title : Отчий дом.1959
Writing library : x264 core 148 r2638kMod 7599210
Encoding settings : cabac=1 / ref=16 / deblock=1:-1:-1 / analyse=0x3:0x133 / me=umh / subme=11 / psy=1 / fade_compensate=0.00 / psy_rd=0.80:0.20 / mixed_ref=1 / me_range=32 / chroma_me=1 / trellis=2 / 8x8dct=1 / cqm=0 / deadzone=21,11 / fast_pskip=1 / chroma_qp_offset=-3 / threads=12 / lookahead_threads=2 / sliced_threads=0 / nr=0 / decimate=1 / interlaced=0 / bluray_compat=0 / constrained_intra=0 / fgo=0 / bframes=9 / b_pyramid=2 / b_adapt=2 / b_bias=0 / direct=1 / weightb=1 / open_gop=0 / weightp=2 / keyint=250 / keyint_min=25 / scenecut=40 / intra_refresh=0 / rc_lookahead=40 / rc=crf / mbtree=0 / crf=18.0000 / qcomp=0.60 / qpmin=0 / qpmax=69 / qpstep=4 / vbv_maxrate=50000 / vbv_bufsize=62500 / crf_max=0.0 / nal_hrd=none / filler=0 / ip_ratio=1.40 / pb_ratio=1.30 / aq=2:0.80
Language : Russian
Default : Yes
Forced : No
Color primaries : BT.601 PAL
Transfer characteristics : BT.470 System B, BT.470 System G
Matrix coefficients : BT.601
Color range : Limited
Audio
ID : 2
Format : AC-3
Format/Info : Audio Coding 3
Mode extension : CM (complete main)
Format settings, Endianness : Big
Codec ID : A_AC3
Duration : 1h 33mn
Bit rate mode : Constant
Bit rate : 192 Kbps
Channel(s) : 2 channels
Channel positions : Front: L R
Sampling rate : 48.0 KHz
Bit depth : 16 bits
Compression mode : Lossy
Stream size : 129 MiB (8%)
Title : AC-3; 16 bit 48 Khz; 2.0ch 192 Kbps; CBR
Language : Russian
Default : Yes
Forced : No

Скриншоты

Яндекс.Метрика
Рейтинг@Mail.ru