[ Сегодня на трекере фрилич! Идет свободное скачивание без начисления Download ]

Волна / Bolgen (2015) BDRip [H.264/720p-LQ]

 

Создавать темы 29-Дек-2015 13:59

-Волна / Bolgen (2015) BDRip [H.264/720p-LQ]- Производство: Норвегия
Жанр: Боевик, триллер, драма
Режиссер: Роар Утхауг
Актеры: Томас Бо Ларсен, Кристоффер Йонер, Эни Даль Торп, Фридтьов Сохейм, Йонас Хофф Офтебро, Ладо Хаджик, Артур Бернинг, Эдит Хогенруд-Сэнд, Элли Харбоа, Метта Агнета Хорн
Описание:
Сигнал тревоги разносится над спящим городом. То, чего так боялись сейсмологи, сбылось — сильнейший тектонический сдвиг вызывает обрушение горного массива. Теперь гигантское смертоносное цунами движется прямо на людей. Опытный геолог Кристиан Айкорд оказывается в эпицентре самого страшного кошмара своей жизни.

Дата мировой премьеры: 16 августа 2015
Дата премьеры в России: 10 декабря 2015

Релиз от: FAGOT100
Продолжительность: 01:44:54
Качество видео: BDRip
Перевод: Дублированный (iTunes)
Субтитры: Английские, норвежские, датские, шведские
Видео: AVC, 1280x536 (2.35:1), 24.000 fps, 3 074 Kbps (0.187 bit/pixel)
Аудио: AC-3, 48.0 KHz, 6 ch, 384 Kbps, CBR (Russian)

log x264

x264 [info]: frame I:1203 Avg QP:15.83 size: 70426 PSNR Mean Y:49.09 U:51.50 V:51.70 Avg:49.74 Global:48.82
x264 [info]: frame P:34228 Avg QP:17.44 size: 31195 PSNR Mean Y:48.39 U:51.07 V:51.38 Avg:49.10 Global:47.69
x264 [info]: frame B:115636 Avg QP:19.96 size: 11485 PSNR Mean Y:47.14 U:49.85 V:50.16 Avg:47.84 Global:46.46
x264 [info]: consecutive B-frames: 2.4% 3.3% 9.8% 22.1% 17.7% 33.6% 6.1% 2.6% 2.5%

MediaInfo:

Формат                                   : Matroska
Версия формата                           : Version 2
Размер файла                             : 2,59 Гбайт
Продолжительность                        : 1 ч. 44 м.
Общий поток                              : 3538 Кбит/сек
Дата кодирования                         : UTC 2015-12-29 10:59:46
Программа кодирования                    : mkvmerge v5.3.0 ('I could have danced') built on Feb  9 2012 10:38:07
Библиотека кодирования                   : libebml v1.2.3 + libmatroska v1.3.0
Attachment                               : Yes
Видео
Идентификатор                            : 1
Формат                                   : AVC
Формат/Информация                        : Advanced Video Codec
Профиль формата                          : [url=mailto:[email protected]][email protected][/url]
Параметр CABAC формата                   : Да
Параметр ReFrames формата                : 10 кадров
Идентификатор кодека                     : V_MPEG4/ISO/AVC
Продолжительность                        : 1 ч. 44 м.
Битрейт                                  : 3084 Кбит/сек
Ширина                                   : 1280 пикселей
Высота                                   : 536 пикселей
Соотношение сторон                       : 2,40:1
Режим частоты кадров                     : Постоянный
Частота кадров                           : 24,000 кадра/сек
Цветовое пространство                    : YUV
Субдискретизация насыщенности            : 4:2:0
Битовая глубина                          : 8 бит
Тип развёртки                            : Прогрессивная
Бит/(Пиксели*Кадры)                      : 0.187
Размер потока                            : 2,26 Гбайт (87%)
Библиотека кодирования                   : x264 core 146 r2538 121396c
Настройки программы                      : cabac=1 / ref=10 / deblock=1:-3:-3 / analyse=0x3:0x133 / me=umh / subme=10 / psy=1 / psy_rd=1.00:0.15 / mixed_ref=1 / me_range=32 / chroma_me=1 / trellis=2 / 8x8dct=1 / cqm=0 / deadzone=21,11 / fast_pskip=0 / chroma_qp_offset=-3 / threads=2 / lookahead_threads=2 / sliced_threads=0 / nr=0 / decimate=0 / interlaced=0 / bluray_compat=0 / constrained_intra=0 / bframes=8 / b_pyramid=2 / b_adapt=2 / b_bias=0 / direct=3 / weightb=1 / open_gop=0 / weightp=2 / keyint=240 / keyint_min=23 / scenecut=40 / intra_refresh=0 / rc=crf / mbtree=0 / crf=18.6 / qcomp=0.60 / qpmin=0 / qpmax=69 / qpstep=4 / ip_ratio=1.40 / pb_ratio=1.30 / aq=2:0.80
Язык                                     : English
Default                                  : Да
Forced                                   : Нет
Аудио
Идентификатор                            : 2
Формат                                   : AC-3
Формат/Информация                        : Audio Coding 3
Расширение режима                        : CM (complete main)
Параметр Endianness формата              : Big
Идентификатор кодека                     : A_AC3
Продолжительность                        : 1 ч. 44 м.
Вид битрейта                             : Постоянный
Битрейт                                  : 384 Кбит/сек
Каналы                                   : 6 каналов
Расположение каналов                     : Front: L C R, Side: L R, LFE
Частота                                  : 48,0 КГц
Битовая глубина                          : 16 бит
Метод сжатия                             : С потерями
Размер потока                            : 288 Мбайт (11%)
Заголовок                                : Дубляж
Язык                                     : Russian
Default                                  : Да
Forced                                   : Нет
Текст #1
Идентификатор                            : 3
Формат                                   : UTF-8
Идентификатор кодека                     : S_TEXT/UTF8
Идентификатор кодека/Информация          : UTF-8 Plain Text
Язык                                     : English
Default                                  : Нет
Forced                                   : Нет
Текст #2
Идентификатор                            : 4
Формат                                   : UTF-8
Идентификатор кодека                     : S_TEXT/UTF8
Идентификатор кодека/Информация          : UTF-8 Plain Text
Язык                                     : Norwegian
Default                                  : Нет
Forced                                   : Нет
Текст #3
Идентификатор                            : 5
Формат                                   : UTF-8
Идентификатор кодека                     : S_TEXT/UTF8
Идентификатор кодека/Информация          : UTF-8 Plain Text
Язык                                     : Dutch
Default                                  : Нет
Forced                                   : Нет
Текст #4
Идентификатор                            : 6
Формат                                   : UTF-8
Идентификатор кодека                     : S_TEXT/UTF8
Идентификатор кодека/Информация          : UTF-8 Plain Text
Язык                                     : Swedish
Default                                  : Нет
Forced                                   : Нет
Скриншоты:
-Время раздачи: Круглосуточно до 10 скачавших
Яндекс.Метрика
Рейтинг@Mail.ru