[ Сегодня на трекере фрилич! Идет свободное скачивание без начисления Download ]

Viasat History: Сокровища Эрмитажа (Открывая Эрмитаж) / Hermitage Revealed (Margy Kinmonth) [2014 г., Документальный, история, искусство, SATRip]

 

Создавать темы 26-Дек-2015 19:41

-Сокровища Эрмитажа (Открывая Эрмитаж) / Hermitage Revealed (Margy Kinmonth)- Год выпуска: 2014
Страна: Великобритания, США, Нидерланды, Россия, Foxtrot Films Production
Жанр: Документальный, история, искусство
Продолжительность: 01:22:55
Перевод: Профессиональный (одноголосый), переведено и озвучено на студии "SDI Media", перевод Геннадия Максимова, текст читает Виктория Бабанова
Режиссер: Margy Kinmonth-Описание:-Государственный музей Эрмитаж, который находится в Санкт-Петербурге, является одним из самых крупнейших и самых старинных музеев мира. В нём находятся более трёх миллионов сокровищ культуры, а также он может похвастаться таким количеством кураторов, которое не снилось ни одному художественному учреждению. В этом документальном фильме вы увидите историю преобразования дворцового флигеля, который впоследствии стал городским музеем, а также специальные коллекции и закрытые от публики помещения. Список сокровищ Эрмитажа можно продолжать бесконечно: это картины Рембрандта, шедевры русских художников, доисторические артефакты, личная коллекция Екатерины Великой, произведения Микеланджело и Матисса.-Качество: SATRip
Контейнер: AVI
Видео кодек: XviD
Аудио кодек: AC3
Видео: 704x400 25fps 1800 kbps
Аудио: AC3 2ch, 48kHz, 192 kbps-

MediaInfo

Format : AVI
Format/Info : Audio Video Interleave
File size : 1.16 GiB
Duration : 1h 22mn
Overall bit rate : 1 999 Kbps
Writing application : TMPGEnc Video Mastering Works 5 Version. 5.0.6.38
Writing library : TMPGEnc Video Mastering Works 5 Version. 5.0.6.38
Video
ID : 0
Format : MPEG-4 Visual
Format profile : Advanced [email protected]
Format settings, BVOP : 2
Format settings, QPel : No
Format settings, GMC : No warppoints
Format settings, Matrix : Default (H.263)
Muxing mode : Packed bitstream
Codec ID : XVID
Codec ID/Hint : XviD
Duration : 1h 22mn
Bit rate : 1 799 Kbps
Width : 704 pixels
Height : 400 pixels
Display aspect ratio : 16:9
Frame rate : 25.000 fps
Color space : YUV
Chroma subsampling : 4:2:0
Bit depth : 8 bits
Scan type : Progressive
Compression mode : Lossy
Bits/(Pixel*Frame) : 0.256
Stream size : 1.04 GiB (90%)
Writing library : XviD 73
Audio
ID : 1
Format : AC-3
Format/Info : Audio Coding 3
Mode extension : CM (complete main)
Format settings, Endianness : Big
Codec ID : 2000
Duration : 1h 22mn
Bit rate mode : Constant
Bit rate : 192 Kbps
Channel(s) : 2 channels
Channel positions : Front: L R
Sampling rate : 48.0 KHz
Bit depth : 16 bits
Compression mode : Lossy
Stream size : 114 MiB (10%)
Alignment : Aligned on interleaves
Interleave, duration : 240 ms (6.00 video frames)
Interleave, preload duration : 224 ms
-Скриншоты--Благодарность за предоставленный рип: -Время раздачи: 24/7 (круглосуточно)-
Яндекс.Метрика
Рейтинг@Mail.ru