Теория Заговора. Новогодний Стол (2015) HDTVRip 720p

 

Создавать темы 26-Дек-2015 16:03

Теория Заговора. Новогодний Стол- Год выпуска: 26.12.2015
Страна: Россия
Студия: Первый Канал HD
Жанр: Документальный
Продолжительность: 0:38:21
Автор и руководитель цикла: Андрей Сычев
Режиссеры: Алексей Булейко, Кирилл Ващенко
Ведущий: Михаил Мамаев-Описание: В преддверии Нового года все сотрудники нашей редакции будут "стругать" салаты. Мы исследуем каждый ингредиент, чтобы не только безболезненно отметить праздник с коллегами, но и купить домой только качественные и вкусные продукты. Ведущий будет руководить процессом приготовления праздничного стола и вместе с экспертами, которые будут приходить на нашу кухню, выяснять, как из огромного ассортимента продуктов выбрать наиболее качественные.-Автор рипа: lrn
Автор записи: GeneralFilm
Сэмпл: sendfile-Качество: HDTVRip 720p
Формат: MKV
Видео: 1280x720 (16:9), 25,000 fps, H264, ~4000 kbps avg, ~0.174 bit/pixel
Аудио: 48 kHz, AC3 Dolby Digital, 3/2 (L,C,R,l,r) + LFE ch, ~384.00 kbps avg-

MediaInfo

General
Unique ID : 233489878380379064270376105911822802409 (0xAFA883CD1AFDE341BD7EB88EF6975DE9)
Complete name : E:uTorrent.TempTempTeoriya.Zagovora.(2015.12.26).HDTV.720p.x264-lrn.mkv
Format : Matroska
Format version : Version 4 / Version 2
File size : 1.18 GiB
Duration : 38mn 21s
Overall bit rate : 4 386 Kbps
Movie name : Teoriya.Zagovora.(2015.12.26).HDTV.720p.x264-lrn
Encoded date : UTC 2010-02-22 21:41:31
Writing application : mkvmerge v5.9.0 ('On The Loose') built on Dec 9 2012 15:37:01
Writing library : libebml v1.3.0 + libmatroska v1.4.0
Video
ID : 1
Format : AVC
Format/Info : Advanced Video Codec
Format profile : [email protected]
Format settings, CABAC : Yes
Format settings, ReFrames : 8 frames
Codec ID : V_MPEG4/ISO/AVC
Duration : 38mn 21s
Bit rate : 4 000 Kbps
Width : 1 280 pixels
Height : 720 pixels
Display aspect ratio : 16:9
Frame rate mode : Constant
Frame rate : 25.000 fps
Color space : YUV
Chroma subsampling : 4:2:0
Bit depth : 8 bits
Scan type : Progressive
Bits/(Pixel*Frame) : 0.174
Stream size : 1.05 GiB (89%)
Writing library : x264 core 148 r2638 7599210
Encoding settings : cabac=1 / ref=8 / deblock=1:-3:-3 / analyse=0x3:0x133 / me=umh / subme=9 / psy=1 / psy_rd=1.00:0.00 / mixed_ref=1 / me_range=32 / chroma_me=1 / trellis=2 / 8x8dct=1 / cqm=0 / deadzone=21,11 / fast_pskip=1 / chroma_qp_offset=-2 / threads=12 / lookahead_threads=2 / sliced_threads=0 / nr=0 / decimate=1 / interlaced=0 / bluray_compat=0 / constrained_intra=0 / bframes=8 / b_pyramid=2 / b_adapt=2 / b_bias=0 / direct=3 / weightb=1 / open_gop=0 / weightp=2 / keyint=250 / keyint_min=25 / scenecut=40 / intra_refresh=0 / rc_lookahead=50 / rc=2pass / mbtree=1 / bitrate=4000 / ratetol=1.0 / qcomp=0.60 / qpmin=0 / qpmax=69 / qpstep=4 / cplxblur=20.0 / qblur=0.5 / vbv_maxrate=62500 / vbv_bufsize=78125 / nal_hrd=none / filler=0 / ip_ratio=1.40 / aq=1:1.00
Default : Yes
Forced : No
Statistics Tags Issue : mkvmerge v8.5.2 ('Crosses') 32bit 2015-12-26 11:58:12 / mkvmerge v5.9.0 ('On The Loose') built on Dec 9 2012 15:37:01 2010-02-22 21:41:31
FromStats_BitRate : 3999725
FromStats_Duration : 00:38:21.800000000
FromStats_FrameCount : 57545
FromStats_StreamSize : 1150821014
Audio
ID : 2
Format : AC-3
Format/Info : Audio Coding 3
Mode extension : CM (complete main)
Format settings, Endianness : Big
Codec ID : A_AC3
Duration : 38mn 21s
Bit rate mode : Constant
Bit rate : 384 Kbps
Channel(s) : 6 channels
Channel positions : Front: L C R, Side: L R, LFE
Sampling rate : 48.0 KHz
Frame rate : 31.250 fps (1536 spf)
Compression mode : Lossy
Stream size : 105 MiB (9%)
Language : Russian
Default : Yes
Forced : No

x264 log

raw [info]: 1280x720p 1:1 @ 25/1 fps (cfr)
x264 [info]: using SAR=1/1
x264 [info]: using cpu capabilities: MMX2 SSE2Fast SSSE3 SSE4.2 AVX
x264 [info]: profile High, level 4.1
x264 [info]: frame I:487 Avg QP:13.01 size:138817
x264 [info]: frame P:16384 Avg QP:16.14 size: 43736
x264 [info]: frame B:40674 Avg QP:18.69 size: 9014
x264 [info]: consecutive B-frames: 4.0% 6.1% 6.8% 72.8% 4.6% 4.3% 0.7% 0.4% 0.2%
x264 [info]: mb I I16..4: 6.1% 73.5% 20.4%
x264 [info]: mb P I16..4: 2.2% 10.3% 1.2% P16..4: 41.1% 22.8% 14.6% 0.8% 0.2% skip: 6.8%
x264 [info]: mb B I16..4: 0.2% 0.8% 0.1% B16..8: 34.5% 8.1% 1.9% direct: 6.5% skip:47.9% L0:36.8% L1:44.5% BI:18.7%
x264 [info]: 8x8 transform intra:74.2% inter:56.5%
x264 [info]: direct mvs spatial:98.3% temporal:1.7%
x264 [info]: coded y,uvDC,uvAC intra: 73.9% 88.4% 63.6% inter: 20.8% 27.6% 4.6%
x264 [info]: i16 v,h,dc,p: 31% 15% 6% 47%
x264 [info]: i8 v,h,dc,ddl,ddr,vr,hd,vl,hu: 14% 14% 10% 7% 10% 11% 12% 10% 12%
x264 [info]: i4 v,h,dc,ddl,ddr,vr,hd,vl,hu: 15% 13% 7% 8% 13% 12% 12% 10% 11%
x264 [info]: i8c dc,h,v,p: 36% 27% 21% 16%
x264 [info]: Weighted P-Frames: Y:1.5% UV:0.8%
x264 [info]: ref P L0: 57.7% 11.8% 15.6% 4.6% 3.7% 2.5% 2.3% 1.6% 0.2% 0.0%
x264 [info]: ref B L0: 85.3% 9.0% 2.7% 1.3% 0.8% 0.6% 0.3%
x264 [info]: ref B L1: 96.8% 3.2%
x264 [info]: kb/s:3999.72
encoded 57545 frames, 14.86 fps, 3999.72 kb/s

Скриншоты

Яндекс.Метрика
Рейтинг@Mail.ru