[ Сегодня на трекере фрилич! Идет свободное скачивание без начисления Download ]

BBC: Византия - сказания о трёх городах / Byzantium: A Tale of Three Cities [серии 1-3 из 3] (Грэхам Джонстон) [2013 г., Документальный, история, HDTVRip 720p]

 

Создавать темы 25-Дек-2015 19:42

-BBC: Византия - сказания о трёх городах / Byzantium: A Tale of Three Cities
[серии 1-3 из 3]
- Год выпуска: 2013
Страна: Великобритания, BBC, Religion & Ethics Production Salford
Жанр: Документальный, история
Продолжительность: 3x ~ 00:50:21
Перевод: Профессиональный (одноголосый)
Режиссер: Грэхам Джонстон-Описание:-Историк Симон Монтефиоре Сибэг прослеживает историю Стамбула. Известный как "город в мире желания", это место, которое находится в центре внимания верующих трех различных конфессий - язычество, христианство и ислам. Почти 3000 лет его улицы были полем битвы для некоторых из самых ожесточенных политических и религиозных конфликтов в истории.-Список серий:
01. От Византия к Константинополю / From Byzantium to Constantinople
02. От Константинополя к Стамбулу / From Constantinople to Istanbul
03. Столица новой империи / Capital of a New Empire
-Качество: HDTVRip 720p
Контейнер: MKV
Видео кодек: H.264
Аудио кодек: AC3
Видео: 1280x720 25.00fps 3200 Kbps
Аудио: AC3 2ch, 48kHz, 192 kbps-

MediaInfo

Format : Matroska
Format version : Version 4 / Version 2
File size : 1.20 GiB
Duration : 50mn 21s
Overall bit rate mode : Constant
Overall bit rate : 3 416 Kbps
Encoded date : UTC 2015-12-12 18:11:11
Writing application : mkvmerge v7.3.0 ('Nouages') 64bit built on Oct 22 2014 18:53:34
Writing library : libebml v1.3.0 + libmatroska v1.4.1
DURATION : 00:50:21.319000000
NUMBER_OF_FRAMES : 75533
NUMBER_OF_BYTES : 1241196718
_STATISTICS_WRITING_APP : mkvmerge v7.3.0 ('Nouages') 64bit built on Oct 22 2014 18:53:34
_STATISTICS_WRITING_DATE_UTC : 2015-12-12 18:11:11
_STATISTICS_TAGS : BPS DURATION NUMBER_OF_FRAMES NUMBER_OF_BYTES
Video
ID : 1
Format : AVC
Format/Info : Advanced Video Codec
Format profile : [email protected]
Format settings, CABAC : Yes
Format settings, ReFrames : 3 frames
Codec ID : V_MPEG4/ISO/AVC
Duration : 50mn 21s
Bit rate mode : Constant
Bit rate : 3 220 Kbps
Nominal bit rate : 3 500 Kbps / 3 500 Kbps
Width : 1 280 pixels
Height : 720 pixels
Display aspect ratio : 16:9
Frame rate mode : Constant
Frame rate : 25.000 fps
Standard : NTSC
Color space : YUV
Chroma subsampling : 4:2:0
Bit depth : 8 bits
Scan type : Progressive
Bits/(Pixel*Frame) : 0.140
Stream size : 1.13 GiB (94%)
Writing library : x264 core 114
Encoding settings : cabac=1 / ref=3 / deblock=1:0:0 / analyse=0x3:0x113 / me=hex / subme=7 / psy=1 / psy_rd=1.00:0.00 / mixed_ref=1 / me_range=16 / chroma_me=1 / trellis=1 / 8x8dct=1 / cqm=2 / deadzone=21,11 / fast_pskip=1 / chroma_qp_offset=-2 / threads=6 / sliced_threads=0 / slices=1 / nr=0 / decimate=1 / interlaced=0 / constrained_intra=0 / bframes=3 / b_pyramid=0 / b_adapt=1 / b_bias=0 / direct=1 / weightb=1 / open_gop=0 / weightp=2 / keyint=250 / keyint_min=25 / scenecut=40 / intra_refresh=0 / rc_lookahead=40 / rc=cbr / mbtree=1 / bitrate=3500 / ratetol=1.0 / qcomp=0.60 / qpmin=3 / qpmax=69 / qpstep=4 / vbv_maxrate=3500 / vbv_bufsize=3489 / nal_hrd=cbr / ip_ratio=1.40 / aq=1:1.00
Default : Yes
Forced : No
Color primaries : BT.709
Transfer characteristics : BT.709
Matrix coefficients : BT.709
Color range : Limited
Audio
ID : 2
Format : AC-3
Format/Info : Audio Coding 3
Mode extension : CM (complete main)
Format settings, Endianness : Big
Codec ID : A_AC3
Duration : 50mn 21s
Bit rate mode : Constant
Bit rate : 128 Kbps
Channel(s) : 2 channels
Channel positions : Front: L R
Sampling rate : 48.0 KHz
Bit depth : 16 bits
Compression mode : Lossy
Stream size : 46.1 MiB (4%)
Default : Yes
Forced : No
-Скриншоты--Благодарность за предоставленный рип: -Время раздачи: 24/7 (круглосуточно)-
Яндекс.Метрика
Рейтинг@Mail.ru