(Pop, Jazz, Soul, Disco) VA - Ultimate... Christmas (4CD) - 2015 [FLAC, tracks+.cue, lossless]

 

Создавать темы 25-Дек-2015 12:01

-Ultimate... Christmas (4CD)-- Год издания: 2015
Страна: n/a
Жанр: Pop, Jazz, Soul, Disco
Продолжительность: 04:16:56-Лейбл издания: Sony Music
Тип альбома: Compilation
Страна-выпуска диска: EU
Номер по каталогу: 88875147872
Формат: FLAC
Битрейт аудио: lossless
Тип рипа: tracks+.cue
Источник (релизер): tilzzyd
Наличие сканов в содержимом раздачи: да
-

Disc 1 | 01:04:32

01.Wham! - Last Christmas (04:25)
02.Boney M. - Mary's Boy Child-Oh My Lord (05:10)
03.Perry Como - It's Beginning to Look a Lot Like Christmas (02:38)
04.Candy Williams - It's the Most Wonderful Time of the Year (02:33)
05.The Ronettes - Sleigh Ride (03:02)
06.Frank Sinatra - Let It Snow! Let It Snow! Let It Snow! (02:37)
07.Tony Bennett - Winter Wonderland (02:14)
08.Johnny Mathis - When a Child Is Born (03:44)
09.Eartha Kitt - Santa Baby (03:28)
10.Bette Midler - Cool Yule (02:29)
11.Luther Vandross - Have Yourself a Merry Little Christmas (05:07)
12.Percy Faith & His Orchestra and Chorus - Happy Holiday (02:00)
13.Michael Bolton - White Christmas (03:44)
14.Elvis Presley - Blue Christmas (02:09)
15.Dana - It's Gonna Be a Cold, Cold Christmas (03:18)
16.Celine Dion - Happy Xmas (War Is Over) (04:15)
17.Train - Shake Up Christmas (03:54)
18.Cyndi Lauper - Early Christmas Morning (05:08)
19.Bob Dylan - Must Be Santa (02:47)

лог создания рипа

Exact Audio Copy V1.1 from 23. June 2015
EAC extraction logfile from 28. November 2015, 22:51
Various Artists / Ultimate Christmas: 4CDs of Great Christmas Music (Disc 1)
Used drive  : ASUS    BW-12D1S-U   Adapter: 1  ID: 1
Read mode               : Secure
Utilize accurate stream : Yes
Defeat audio cache      : Yes
Make use of C2 pointers : No
Read offset correction                      : 667
Overread into Lead-In and Lead-Out          : No
Fill up missing offset samples with silence : Yes
Delete leading and trailing silent blocks   : No
Null samples used in CRC calculations       : Yes
Used interface                              : Native Win32 interface for Win NT & 2000
Gap handling                                : Appended to previous track
Used output format              : User Defined Encoder
Selected bitrate                : 1024 kBit/s
Quality                         : High
Add ID3 tag                     : No
Command line compressor         : C:\Program Files (x86)\Kodeki za Glasbo\flac v1.3.1\win64\flac.exe
Additional command line options : -8 -V -T "ARTIST=%artist%" -T "TITLE=%title%" -T "ALBUM=%albumtitle%" -T "DATE=%year%" -T "TRACKNUMBER=%tracknr%" -T "TOTALTRACKS=%numtracks%" -T "GENRE=%genre%" -T "ALBUMARTIST=%albumartist%" -T "ALBUM ARTIST=%albumartist%" -T "COMMENT=EAC Secure Mode, Test & Copy, AccurateRip, FLAC -8" %source%
TOC of the extracted CD
     Track |   Start  |  Length  | Start sector | End sector
    ---------------------------------------------------------
        1  |  0:00.00 |  4:24.22 |         0    |    19821
        2  |  4:24.22 |  5:09.27 |     19822    |    43023
        3  |  9:33.49 |  2:37.06 |     43024    |    54804
        4  | 12:10.55 |  2:32.47 |     54805    |    66251
        5  | 14:43.27 |  3:01.56 |     66252    |    79882
        6  | 17:45.08 |  2:36.61 |     79883    |    91643
        7  | 20:21.69 |  2:13.26 |     91644    |   101644
        8  | 22:35.20 |  3:43.36 |    101645    |   118405
        9  | 26:18.56 |  3:27.10 |    118406    |   133940
       10  | 29:45.66 |  2:28.06 |    133941    |   145046
       11  | 32:13.72 |  5:06.54 |    145047    |   168050
       12  | 37:20.51 |  1:59.01 |    168051    |   176976
       13  | 39:19.52 |  3:43.62 |    176977    |   193763
       14  | 43:03.39 |  2:08.42 |    193764    |   203405
       15  | 45:12.06 |  3:17.36 |    203406    |   218216
       16  | 48:29.42 |  4:14.53 |    218217    |   237319
       17  | 52:44.20 |  3:53.40 |    237320    |   254834
       18  | 56:37.60 |  5:07.33 |    254835    |   277892
       19  | 61:45.18 |  2:46.25 |    277893    |   290367
Track  1
     Filename K:\3. my rip in preparation\3 - in treatment\1\CD1\01 - Wham! - Last Christmas.wav
     Pre-gap length  0:00:02.00
     Peak level 88.1 %
     Extraction speed 1.6 X
     Track quality 99.9 %
     Test CRC 5D906773
     Copy CRC 5D906773
     Track not present in AccurateRip database
     Copy OK
Track  2
     Filename K:\3. my rip in preparation\3 - in treatment\1\CD1\02 - Boney M. - Mary's Boy Child-Oh My Lord.wav
     Pre-gap length  0:00:01.77
     Peak level 98.8 %
     Extraction speed 2.0 X
     Track quality 100.0 %
     Test CRC CEAC5738
     Copy CRC CEAC5738
     Track not present in AccurateRip database
     Copy OK
Track  3
     Filename K:\3. my rip in preparation\3 - in treatment\1\CD1\03 - Perry Como - It's Beginning to Look a Lot Like Christmas.wav
     Pre-gap length  0:00:01.77
     Peak level 99.7 %
     Extraction speed 1.9 X
     Track quality 100.0 %
     Test CRC FB748D94
     Copy CRC FB748D94
     Track not present in AccurateRip database
     Copy OK
Track  4
     Filename K:\3. my rip in preparation\3 - in treatment\1\CD1\04 - Candy Williams - It's the Most Wonderful Time of the Year.wav
     Pre-gap length  0:00:01.77
     Peak level 99.7 %
     Extraction speed 2.0 X
     Track quality 100.0 %
     Test CRC 8014263B
     Copy CRC 8014263B
     Track not present in AccurateRip database
     Copy OK
Track  5
     Filename K:\3. my rip in preparation\3 - in treatment\1\CD1\05 - The Ronettes - Sleigh Ride.wav
     Pre-gap length  0:00:01.77
     Peak level 99.7 %
     Extraction speed 2.2 X
     Track quality 100.0 %
     Test CRC BE70D198
     Copy CRC BE70D198
     Track not present in AccurateRip database
     Copy OK
Track  6
     Filename K:\3. my rip in preparation\3 - in treatment\1\CD1\06 - Frank Sinatra - Let It Snow! Let It Snow! Let It Snow!.wav
     Pre-gap length  0:00:01.77
     Peak level 99.7 %
     Extraction speed 2.2 X
     Track quality 100.0 %
     Test CRC DF90A22C
     Copy CRC DF90A22C
     Track not present in AccurateRip database
     Copy OK
Track  7
     Filename K:\3. my rip in preparation\3 - in treatment\1\CD1\07 - Tony Bennett - Winter Wonderland.wav
     Pre-gap length  0:00:01.77
     Peak level 99.2 %
     Extraction speed 2.2 X
     Track quality 100.0 %
     Test CRC C9012716
     Copy CRC C9012716
     Track not present in AccurateRip database
     Copy OK
Track  8
     Filename K:\3. my rip in preparation\3 - in treatment\1\CD1\08 - Johnny Mathis - When a Child Is Born.wav
     Pre-gap length  0:00:01.77
     Peak level 99.7 %
     Extraction speed 2.5 X
     Track quality 100.0 %
     Test CRC E0243A9B
     Copy CRC E0243A9B
     Track not present in AccurateRip database
     Copy OK
Track  9
     Filename K:\3. my rip in preparation\3 - in treatment\1\CD1\09 - Eartha Kitt - Santa Baby.wav
     Pre-gap length  0:00:01.77
     Peak level 99.7 %
     Extraction speed 2.3 X
     Track quality 99.9 %
     Test CRC A5C11DC1
     Copy CRC A5C11DC1
     Track not present in AccurateRip database
     Copy OK
Track 10
     Filename K:\3. my rip in preparation\3 - in treatment\1\CD1\10 - Bette Midler - Cool Yule.wav
     Pre-gap length  0:00:01.77
     Peak level 87.8 %
     Extraction speed 2.1 X
     Track quality 99.9 %
     Test CRC DBECC2AB
     Copy CRC DBECC2AB
     Track not present in AccurateRip database
     Copy OK
Track 11
     Filename K:\3. my rip in preparation\3 - in treatment\1\CD1\11 - Luther Vandross - Have Yourself a Merry Little Christmas.wav
     Pre-gap length  0:00:01.77
     Peak level 99.7 %
     Extraction speed 2.6 X
     Track quality 99.9 %
     Test CRC 2F78847C
     Copy CRC 2F78847C
     Track not present in AccurateRip database
     Copy OK
Track 12
     Filename K:\3. my rip in preparation\3 - in treatment\1\CD1\12 - Percy Faith & His Orchestra and Chorus - Happy Holiday.wav
     Pre-gap length  0:00:01.77
     Peak level 87.1 %
     Extraction speed 2.6 X
     Track quality 100.0 %
     Test CRC C742E42A
     Copy CRC C742E42A
     Track not present in AccurateRip database
     Copy OK
Track 13
     Filename K:\3. my rip in preparation\3 - in treatment\1\CD1\13 - Michael Bolton - White Christmas.wav
     Pre-gap length  0:00:01.77
     Peak level 98.8 %
     Extraction speed 3.0 X
     Track quality 100.0 %
     Test CRC 72A6303B
     Copy CRC 72A6303B
     Track not present in AccurateRip database
     Copy OK
Track 14
     Filename K:\3. my rip in preparation\3 - in treatment\1\CD1\14 - Elvis Presley - Blue Christmas.wav
     Pre-gap length  0:00:01.77
     Peak level 99.7 %
     Extraction speed 2.7 X
     Track quality 100.0 %
     Test CRC 2030941E
     Copy CRC 2030941E
     Track not present in AccurateRip database
     Copy OK
Track 15
     Filename K:\3. my rip in preparation\3 - in treatment\1\CD1\15 - Dana - It's Gonna Be a Cold, Cold Christmas.wav
     Pre-gap length  0:00:01.77
     Peak level 88.1 %
     Extraction speed 3.1 X
     Track quality 100.0 %
     Test CRC DB542FDF
     Copy CRC DB542FDF
     Track not present in AccurateRip database
     Copy OK
Track 16
     Filename K:\3. my rip in preparation\3 - in treatment\1\CD1\16 - Celine Dion - Happy Xmas (War Is Over).wav
     Pre-gap length  0:00:01.77
     Peak level 89.7 %
     Extraction speed 3.2 X
     Track quality 100.0 %
     Test CRC BFC8D38F
     Copy CRC BFC8D38F
     Track not present in AccurateRip database
     Copy OK
Track 17
     Filename K:\3. my rip in preparation\3 - in treatment\1\CD1\17 - Train - Shake Up Christmas.wav
     Pre-gap length  0:00:01.77
     Peak level 79.4 %
     Extraction speed 3.3 X
     Track quality 100.0 %
     Test CRC 53557E87
     Copy CRC 53557E87
     Track not present in AccurateRip database
     Copy OK
Track 18
     Filename K:\3. my rip in preparation\3 - in treatment\1\CD1\18 - Cyndi Lauper - Early Christmas Morning.wav
     Pre-gap length  0:00:01.77
     Peak level 99.7 %
     Extraction speed 3.2 X
     Track quality 99.9 %
     Test CRC 69A987CD
     Copy CRC 69A987CD
     Track not present in AccurateRip database
     Copy OK
Track 19
     Filename K:\3. my rip in preparation\3 - in treatment\1\CD1\19 - Bob Dylan - Must Be Santa.wav
     Pre-gap length  0:00:01.77
     Peak level 89.0 %
     Extraction speed 2.8 X
     Track quality 99.9 %
     Test CRC 2CEADC25
     Copy CRC 2CEADC25
     Track not present in AccurateRip database
     Copy OK
None of the tracks are present in the AccurateRip database
No errors occurred
End of status report
---- CUETools DB Plugin V2.1.6
[CTDB TOCID: LCkd_hjH2ApreDXn32_4ZFwVkKU-] found
Submit result: already submitted
Track | CTDB Status
  1   | (2/2) Accurately ripped
  2   | (2/2) Accurately ripped
  3   | (2/2) Accurately ripped
  4   | (2/2) Accurately ripped
  5   | (2/2) Accurately ripped
  6   | (2/2) Accurately ripped
  7   | (2/2) Accurately ripped
  8   | (2/2) Accurately ripped
  9   | (2/2) Accurately ripped
10   | (2/2) Accurately ripped
11   | (2/2) Accurately ripped
12   | (2/2) Accurately ripped
13   | (2/2) Accurately ripped
14   | (2/2) Accurately ripped
15   | (2/2) Accurately ripped
16   | (2/2) Accurately ripped
17   | (2/2) Accurately ripped
18   | (2/2) Accurately ripped
19   | (2/2) Accurately ripped

содержание индексной карты *cue

REM GENRE Pop
REM DATE 2015
REM DISCID 1E0F1F13
REM COMMENT "ExactAudioCopy v1.1"
CATALOG 0888751478720
PERFORMER "Various Artists"
TITLE "Ultimate Christmas: 4CDs of Great Christmas Music (Disc 1)"
FILE "01 - Wham! - Last Christmas.wav" WAVE
  TRACK 01 AUDIO
    TITLE "Last Christmas"
    PERFORMER "Wham!"
    ISRC GBBBM8400019
    INDEX 01 00:00:00
  TRACK 02 AUDIO
    TITLE "Mary's Boy Child-Oh My Lord"
    PERFORMER "Boney M."
    ISRC DED168000016
    INDEX 00 04:22:39
FILE "02 - Boney M. - Mary's Boy Child-Oh My Lord.wav" WAVE
    INDEX 01 00:00:00
  TRACK 03 AUDIO
    TITLE "It's Beginning to Look a Lot Like Christmas"
    PERFORMER "Perry Como"
    ISRC USRC15106173
    INDEX 00 05:07:44
FILE "03 - Perry Como - It's Beginning to Look a Lot Like Christmas.wav" WAVE
    INDEX 01 00:00:00
  TRACK 04 AUDIO
    TITLE "It's the Most Wonderful Time of the Year"
    PERFORMER "Candy Williams"
    ISRC USSM16301328
    INDEX 00 02:35:23
FILE "04 - Candy Williams - It's the Most Wonderful Time of the Year.wav" WAVE
    INDEX 01 00:00:00
  TRACK 05 AUDIO
    TITLE "Sleigh Ride"
    PERFORMER "The Ronettes"
    ISRC USSM10905166
    INDEX 00 02:30:64
FILE "05 - The Ronettes - Sleigh Ride.wav" WAVE
    INDEX 01 00:00:00
  TRACK 06 AUDIO
    TITLE "Let It Snow! Let It Snow! Let It Snow!"
    PERFORMER "Frank Sinatra"
    ISRC USSM10018232
    INDEX 00 02:59:73
FILE "06 - Frank Sinatra - Let It Snow! Let It Snow! Let It Snow!.wav" WAVE
    INDEX 01 00:00:00
  TRACK 07 AUDIO
    TITLE "Winter Wonderland"
    PERFORMER "Tony Bennett"
    ISRC USSM16801456
    INDEX 00 02:35:03
FILE "07 - Tony Bennett - Winter Wonderland.wav" WAVE
    INDEX 01 00:00:00
  TRACK 08 AUDIO
    TITLE "When a Child Is Born"
    PERFORMER "Johnny Mathis"
    ISRC USSM10018703
    INDEX 00 02:11:43
FILE "08 - Johnny Mathis - When a Child Is Born.wav" WAVE
    INDEX 01 00:00:00
  TRACK 09 AUDIO
    TITLE "Santa Baby"
    PERFORMER "Eartha Kitt"
    ISRC USBB10101085
    INDEX 00 03:41:53
FILE "09 - Eartha Kitt - Santa Baby.wav" WAVE
    INDEX 01 00:00:00
  TRACK 10 AUDIO
    TITLE "Cool Yule"
    PERFORMER "Bette Midler"
    ISRC USSM10604670
    INDEX 00 03:25:27
FILE "10 - Bette Midler - Cool Yule.wav" WAVE
    INDEX 01 00:00:00
  TRACK 11 AUDIO
    TITLE "Have Yourself a Merry Little Christmas"
    PERFORMER "Luther Vandross"
    ISRC USSM19501457
    INDEX 00 02:26:23
FILE "11 - Luther Vandross - Have Yourself a Merry Little Christmas.wav" WAVE
    INDEX 01 00:00:00
  TRACK 12 AUDIO
    TITLE "Happy Holiday"
    PERFORMER "Percy Faith & His Orchestra and Chorus"
    ISRC USSM19915936
    INDEX 00 05:04:71
FILE "12 - Percy Faith & His Orchestra and Chorus - Happy Holiday.wav" WAVE
    INDEX 01 00:00:00
  TRACK 13 AUDIO
    TITLE "White Christmas"
    PERFORMER "Michael Bolton"
    ISRC USSM19603009
    INDEX 00 01:57:18
FILE "13 - Michael Bolton - White Christmas.wav" WAVE
    INDEX 01 00:00:00
  TRACK 14 AUDIO
    TITLE "Blue Christmas"
    PERFORMER "Elvis Presley"
    ISRC USRC10100353
    INDEX 00 03:42:04
FILE "14 - Elvis Presley - Blue Christmas.wav" WAVE
    INDEX 01 00:00:00
  TRACK 15 AUDIO
    TITLE "It's Gonna Be a Cold, Cold Christmas"
    PERFORMER "Dana"
    ISRC GBBBM7500008
    INDEX 00 02:06:59
FILE "15 - Dana - It's Gonna Be a Cold, Cold Christmas.wav" WAVE
    INDEX 01 00:00:00
  TRACK 16 AUDIO
    TITLE "Happy Xmas (War Is Over)"
    PERFORMER "Celine Dion"
    ISRC CAC229800219
    INDEX 00 03:15:53
FILE "16 - Celine Dion - Happy Xmas (War Is Over).wav" WAVE
    INDEX 01 00:00:00
  TRACK 17 AUDIO
    TITLE "Shake Up Christmas"
    PERFORMER "Train"
    ISRC USSM11003859
    INDEX 00 04:12:70
FILE "17 - Train - Shake Up Christmas.wav" WAVE
    INDEX 01 00:00:00
  TRACK 18 AUDIO
    TITLE "Early Christmas Morning"
    PERFORMER "Cyndi Lauper"
    ISRC USSM19804146
    INDEX 00 03:51:57
FILE "18 - Cyndi Lauper - Early Christmas Morning.wav" WAVE
    INDEX 01 00:00:00
  TRACK 19 AUDIO
    TITLE "Must Be Santa"
    PERFORMER "Bob Dylan"
    ISRC USSM10904557
    INDEX 00 05:05:50
FILE "19 - Bob Dylan - Must Be Santa.wav" WAVE
    INDEX 01 00:00:00

Disc 2 | 01:12:52

01.Destiny's Child - 8 Days of Christmas (03:32)
02.Christina Aguilera - The Christmas Song (Holiday remix) (04:03)
03.Leona Lewis - One More Sleep (04:01)
04.The Weather Girls - Dear Santa (Bring Me a Men This Christmas) (03:51)
05.NSYNC - I Don't Wanna Spend One More Christmas Witout You (04:04)
06.Meghan Treinor - I'll Be Home (03:42)
07.Kelly Clarkson - Underneath the Tree (03:50)
08.Jessica Simpson - It's Christmas Time Again (03:10)
09.Britney Spears - My Only Wish (This Year) (04:17)
10.R. Kelly - World Christmas (04:03)
11.Modern Talking - It's Christmas (03:52)
12.Dido - Christmas Day (04:04)
13.Fifth Harmony - All I Want for Christmas Is You (03:51)
14.Chris Brown - This Christmas (03:19)
15.Pentatonix - Mary, Did You Know (03:23)
16.Backstreet Boys - Christmas Time (04:17)
17.New Kids on the Block - Merry, Merry Christmas (04:07)
18.Run-D.M.C. - Christmas in Hollis (03:00)
19.Hurts - All I Want for Christmas Is New Year's Day (04:36)

лог создания рипа

Exact Audio Copy V1.1 from 23. June 2015
EAC extraction logfile from 28. November 2015, 23:18
Various Artists / Ultimate Christmas: 4CDs of Great Christmas Music (Disc 2)
Used drive  : ASUS    BW-12D1S-U   Adapter: 1  ID: 1
Read mode               : Secure
Utilize accurate stream : Yes
Defeat audio cache      : Yes
Make use of C2 pointers : No
Read offset correction                      : 667
Overread into Lead-In and Lead-Out          : No
Fill up missing offset samples with silence : Yes
Delete leading and trailing silent blocks   : No
Null samples used in CRC calculations       : Yes
Used interface                              : Native Win32 interface for Win NT & 2000
Gap handling                                : Appended to previous track
Used output format              : User Defined Encoder
Selected bitrate                : 1024 kBit/s
Quality                         : High
Add ID3 tag                     : No
Command line compressor         : C:\Program Files (x86)\Kodeki za Glasbo\flac v1.3.1\win64\flac.exe
Additional command line options : -8 -V -T "ARTIST=%artist%" -T "TITLE=%title%" -T "ALBUM=%albumtitle%" -T "DATE=%year%" -T "TRACKNUMBER=%tracknr%" -T "TOTALTRACKS=%numtracks%" -T "GENRE=%genre%" -T "ALBUMARTIST=%albumartist%" -T "ALBUM ARTIST=%albumartist%" -T "COMMENT=EAC Secure Mode, Test & Copy, AccurateRip, FLAC -8" %source%
TOC of the extracted CD
     Track |   Start  |  Length  | Start sector | End sector
    ---------------------------------------------------------
        1  |  0:00.00 |  3:31.28 |         0    |    15852
        2  |  3:31.28 |  4:02.74 |     15853    |    34076
        3  |  7:34.27 |  4:00.24 |     34077    |    52100
        4  | 11:34.51 |  3:50.22 |     52101    |    69372
        5  | 15:24.73 |  4:03.07 |     69373    |    87604
        6  | 19:28.05 |  3:41.03 |     87605    |   104182
        7  | 23:09.08 |  3:49.73 |    104183    |   121430
        8  | 26:59.06 |  3:09.33 |    121431    |   135638
        9  | 30:08.39 |  4:16.18 |    135639    |   154856
       10  | 34:24.57 |  4:02.52 |    154857    |   173058
       11  | 38:27.34 |  3:51.02 |    173059    |   190385
       12  | 42:18.36 |  4:03.52 |    190386    |   208662
       13  | 46:22.13 |  3:50.35 |    208663    |   225947
       14  | 50:12.48 |  3:18.25 |    225948    |   240822
       15  | 53:30.73 |  3:22.53 |    240823    |   256025
       16  | 56:53.51 |  4:16.11 |    256026    |   275236
       17  | 61:09.62 |  4:06.34 |    275237    |   293720
       18  | 65:16.21 |  2:59.46 |    293721    |   307191
       19  | 68:15.67 |  4:35.29 |    307192    |   327845
Track  1
     Filename K:\3. my rip in preparation\3 - in treatment\1\CD2\01 - Destiny's Child - 8 Days of Christmas.wav
     Pre-gap length  0:00:02.00
     Peak level 77.5 %
     Extraction speed 4.9 X
     Track quality 100.0 %
     Test CRC 714DF69D
     Copy CRC 714DF69D
     Track not present in AccurateRip database
     Copy OK
Track  2
     Filename K:\3. my rip in preparation\3 - in treatment\1\CD2\02 - Christina Aguilera - The Christmas Song (Holiday remix).wav
     Pre-gap length  0:00:01.77
     Peak level 99.7 %
     Extraction speed 4.8 X
     Track quality 99.9 %
     Test CRC E807C919
     Copy CRC E807C919
     Track not present in AccurateRip database
     Copy OK
Track  3
     Filename K:\3. my rip in preparation\3 - in treatment\1\CD2\03 - Leona Lewis - One More Sleep.wav
     Pre-gap length  0:00:01.77
     Peak level 89.0 %
     Extraction speed 5.1 X
     Track quality 99.9 %
     Test CRC 22DD6F08
     Copy CRC 22DD6F08
     Track not present in AccurateRip database
     Copy OK
Track  4
     Filename K:\3. my rip in preparation\3 - in treatment\1\CD2\04 - The Weather Girls - Dear Santa (Bring Me a Men This Christmas).wav
     Pre-gap length  0:00:01.77
     Peak level 99.7 %
     Extraction speed 6.1 X
     Track quality 100.0 %
     Test CRC AAD16D0C
     Copy CRC AAD16D0C
     Track not present in AccurateRip database
     Copy OK
Track  5
     Filename K:\3. my rip in preparation\3 - in treatment\1\CD2\05 - NSYNC - I Don't Wanna Spend One More Christmas Witout You.wav
     Pre-gap length  0:00:01.77
     Peak level 99.7 %
     Extraction speed 6.5 X
     Track quality 100.0 %
     Test CRC 0D3F9E83
     Copy CRC 0D3F9E83
     Track not present in AccurateRip database
     Copy OK
Track  6
     Filename K:\3. my rip in preparation\3 - in treatment\1\CD2\06 - Meghan Treinor - I'll Be Home.wav
     Pre-gap length  0:00:01.77
     Peak level 89.1 %
     Extraction speed 6.6 X
     Track quality 100.0 %
     Test CRC 703F6ED5
     Copy CRC 703F6ED5
     Track not present in AccurateRip database
     Copy OK
Track  7
     Filename K:\3. my rip in preparation\3 - in treatment\1\CD2\07 - Kelly Clarkson - Underneath the Tree.wav
     Pre-gap length  0:00:01.77
     Peak level 89.0 %
     Extraction speed 7.0 X
     Track quality 100.0 %
     Test CRC 0F41B15B
     Copy CRC 0F41B15B
     Track not present in AccurateRip database
     Copy OK
Track  8
     Filename K:\3. my rip in preparation\3 - in treatment\1\CD2\08 - Jessica Simpson - It's Christmas Time Again.wav
     Pre-gap length  0:00:01.77
     Peak level 99.7 %
     Extraction speed 7.0 X
     Track quality 100.0 %
     Test CRC 304B31FF
     Copy CRC 304B31FF
     Track not present in AccurateRip database
     Copy OK
Track  9
     Filename K:\3. my rip in preparation\3 - in treatment\1\CD2\09 - Britney Spears - My Only Wish (This Year).wav
     Pre-gap length  0:00:01.77
     Peak level 88.5 %
     Extraction speed 7.6 X
     Track quality 100.0 %
     Test CRC 6B9318CC
     Copy CRC 6B9318CC
     Track not present in AccurateRip database
     Copy OK
Track 10
     Filename K:\3. my rip in preparation\3 - in treatment\1\CD2\10 - R. Kelly - World Christmas.wav
     Pre-gap length  0:00:01.77
     Peak level 99.7 %
     Extraction speed 6.9 X
     Track quality 99.9 %
     Test CRC 2F848CE6
     Copy CRC 2F848CE6
     Track not present in AccurateRip database
     Copy OK
Track 11
     Filename K:\3. my rip in preparation\3 - in treatment\1\CD2\11 - Modern Talking - It's Christmas.wav
     Pre-gap length  0:00:01.77
     Peak level 97.7 %
     Extraction speed 8.0 X
     Track quality 100.0 %
     Test CRC C163A861
     Copy CRC C163A861
     Track not present in AccurateRip database
     Copy OK
Track 12
     Filename K:\3. my rip in preparation\3 - in treatment\1\CD2\12 - Dido - Christmas Day.wav
     Pre-gap length  0:00:01.77
     Peak level 98.7 %
     Extraction speed 7.3 X
     Track quality 99.9 %
     Test CRC 59AE837D
     Copy CRC 59AE837D
     Track not present in AccurateRip database
     Copy OK
Track 13
     Filename K:\3. my rip in preparation\3 - in treatment\1\CD2\13 - Fifth Harmony - All I Want for Christmas Is You.wav
     Pre-gap length  0:00:01.77
     Peak level 99.7 %
     Extraction speed 8.3 X
     Track quality 100.0 %
     Test CRC C1A0A54C
     Copy CRC C1A0A54C
     Track not present in AccurateRip database
     Copy OK
Track 14
     Filename K:\3. my rip in preparation\3 - in treatment\1\CD2\14 - Chris Brown - This Christmas.wav
     Pre-gap length  0:00:01.77
     Peak level 99.7 %
     Extraction speed 8.4 X
     Track quality 100.0 %
     Test CRC 54999DEE
     Copy CRC 54999DEE
     Track not present in AccurateRip database
     Copy OK
Track 15
     Filename K:\3. my rip in preparation\3 - in treatment\1\CD2\15 - Pentatonix - Mary, Did You Know.wav
     Pre-gap length  0:00:01.77
     Peak level 89.1 %
     Extraction speed 8.6 X
     Track quality 100.0 %
     Test CRC 5BD8F820
     Copy CRC 5BD8F820
     Track not present in AccurateRip database
     Copy OK
Track 16
     Filename K:\3. my rip in preparation\3 - in treatment\1\CD2\16 - Backstreet Boys - Christmas Time.wav
     Pre-gap length  0:00:01.77
     Peak level 99.7 %
     Extraction speed 9.0 X
     Track quality 100.0 %
     Test CRC 8C045161
     Copy CRC 8C045161
     Track not present in AccurateRip database
     Copy OK
Track 17
     Filename K:\3. my rip in preparation\3 - in treatment\1\CD2\17 - New Kids on the Block - Merry, Merry Christmas.wav
     Pre-gap length  0:00:01.77
     Peak level 99.7 %
     Extraction speed 9.3 X
     Track quality 100.0 %
     Test CRC C3CFAA24
     Copy CRC C3CFAA24
     Track not present in AccurateRip database
     Copy OK
Track 18
     Filename K:\3. my rip in preparation\3 - in treatment\1\CD2\18 - Run-D.M.C. - Christmas in Hollis.wav
     Pre-gap length  0:00:01.77
     Peak level 99.7 %
     Extraction speed 7.8 X
     Track quality 99.9 %
     Test CRC 296834B6
     Copy CRC 296834B6
     Track not present in AccurateRip database
     Copy OK
Track 19
     Filename K:\3. my rip in preparation\3 - in treatment\1\CD2\19 - Hurts - All I Want for Christmas Is New Year's Day.wav
     Pre-gap length  0:00:01.77
     Peak level 98.4 %
     Extraction speed 9.7 X
     Track quality 100.0 %
     Test CRC B94679C8
     Copy CRC B94679C8
     Track not present in AccurateRip database
     Copy OK
None of the tracks are present in the AccurateRip database
No errors occurred
End of status report
---- CUETools DB Plugin V2.1.6
[CTDB TOCID: Wg9qgzE5mEcdWevWJ0qeura1K2U-] found
Submit result: already submitted
Track | CTDB Status
  1   | (2/2) Accurately ripped
  2   | (2/2) Accurately ripped
  3   | (2/2) Accurately ripped
  4   | (2/2) Accurately ripped
  5   | (2/2) Accurately ripped
  6   | (2/2) Accurately ripped
  7   | (2/2) Accurately ripped
  8   | (2/2) Accurately ripped
  9   | (2/2) Accurately ripped
10   | (2/2) Accurately ripped
11   | (2/2) Accurately ripped
12   | (2/2) Accurately ripped
13   | (2/2) Accurately ripped
14   | (2/2) Accurately ripped
15   | (2/2) Accurately ripped
16   | (2/2) Accurately ripped
17   | (2/2) Accurately ripped
18   | (2/2) Accurately ripped
19   | (2/2) Accurately ripped

содержание индексной карты *cue

REM GENRE Pop
REM DATE 2015
REM DISCID FB111313
REM COMMENT "ExactAudioCopy v1.1"
CATALOG 0888751478720
PERFORMER "Various Artists"
TITLE "Ultimate Christmas: 4CDs of Great Christmas Music (Disc 2)"
FILE "01 - Destiny's Child - 8 Days of Christmas.wav" WAVE
  TRACK 01 AUDIO
    TITLE "8 Days of Christmas"
    PERFORMER "Destiny's Child"
    ISRC USSM10016220
    INDEX 01 00:00:00
  TRACK 02 AUDIO
    TITLE "The Christmas Song (Holiday remix)"
    PERFORMER "Christina Aguilera"
    ISRC USRC10000700
    INDEX 00 03:29:45
FILE "02 - Christina Aguilera - The Christmas Song (Holiday remix).wav" WAVE
    INDEX 01 00:00:00
  TRACK 03 AUDIO
    TITLE "One More Sleep"
    PERFORMER "Leona Lewis"
    ISRC GBHMU1300298
    INDEX 00 04:01:16
FILE "03 - Leona Lewis - One More Sleep.wav" WAVE
    INDEX 01 00:00:00
  TRACK 04 AUDIO
    TITLE "Dear Santa (Bring Me a Men This Christmas)"
    PERFORMER "The Weather Girls"
    ISRC USSM18300637
    INDEX 00 03:58:41
FILE "04 - The Weather Girls - Dear Santa (Bring Me a Men This Christmas).wav" WAVE
    INDEX 01 00:00:00
  TRACK 05 AUDIO
    TITLE "I Don't Wanna Spend One More Christmas Witout You"
    PERFORMER "NSYNC"
    ISRC USJI10000523
    INDEX 00 03:48:39
FILE "05 - NSYNC - I Don't Wanna Spend One More Christmas Witout You.wav" WAVE
    INDEX 01 00:00:00
  TRACK 06 AUDIO
    TITLE "I'll Be Home"
    PERFORMER "Meghan Treinor"
    ISRC USSM11408623
    INDEX 00 04:01:24
FILE "06 - Meghan Treinor - I'll Be Home.wav" WAVE
    INDEX 01 00:00:00
  TRACK 07 AUDIO
    TITLE "Underneath the Tree"
    PERFORMER "Kelly Clarkson"
    ISRC GBCTA1300103
    INDEX 00 03:39:20
FILE "07 - Kelly Clarkson - Underneath the Tree.wav" WAVE
    INDEX 01 00:00:00
  TRACK 08 AUDIO
    TITLE "It's Christmas Time Again"
    PERFORMER "Jessica Simpson"
    ISRC USSM10412622
    INDEX 00 03:48:15
FILE "08 - Jessica Simpson - It's Christmas Time Again.wav" WAVE
    INDEX 01 00:00:00
  TRACK 09 AUDIO
    TITLE "My Only Wish (This Year)"
    PERFORMER "Britney Spears"
    ISRC USJI10000522
    INDEX 00 03:07:50
FILE "09 - Britney Spears - My Only Wish (This Year).wav" WAVE
    INDEX 01 00:00:00
  TRACK 10 AUDIO
    TITLE "World Christmas"
    PERFORMER "R. Kelly"
    ISRC USJI10000526
    INDEX 00 04:14:35
FILE "10 - R. Kelly - World Christmas.wav" WAVE
    INDEX 01 00:00:00
  TRACK 11 AUDIO
    TITLE "It's Christmas"
    PERFORMER "Modern Talking"
    ISRC DEC738700001
    INDEX 00 04:00:69
FILE "11 - Modern Talking - It's Christmas.wav" WAVE
    INDEX 01 00:00:00
  TRACK 12 AUDIO
    TITLE "Christmas Day"
    PERFORMER "Dido"
    ISRC USAR10001636
    INDEX 00 03:49:19
FILE "12 - Dido - Christmas Day.wav" WAVE
    INDEX 01 00:00:00
  TRACK 13 AUDIO
    TITLE "All I Want for Christmas Is You"
    PERFORMER "Fifth Harmony"
    ISRC USSM11408817
    INDEX 00 04:01:69
FILE "13 - Fifth Harmony - All I Want for Christmas Is You.wav" WAVE
    INDEX 01 00:00:00
  TRACK 14 AUDIO
    TITLE "This Christmas"
    PERFORMER "Chris Brown"
    ISRC USJI10700772
    INDEX 00 03:48:52
FILE "14 - Chris Brown - This Christmas.wav" WAVE
    INDEX 01 00:00:00
  TRACK 15 AUDIO
    TITLE "Mary, Did You Know"
    PERFORMER "Pentatonix"
    ISRC USRC11402151
    INDEX 00 03:16:42
FILE "15 - Pentatonix - Mary, Did You Know.wav" WAVE
    INDEX 01 00:00:00
  TRACK 16 AUDIO
    TITLE "Christmas Time"
    PERFORMER "Backstreet Boys"
    ISRC USJI10000524
    INDEX 00 03:20:70
FILE "16 - Backstreet Boys - Christmas Time.wav" WAVE
    INDEX 01 00:00:00
  TRACK 17 AUDIO
    TITLE "Merry, Merry Christmas"
    PERFORMER "New Kids on the Block"
    ISRC USSM18900795
    INDEX 00 04:14:28
FILE "17 - New Kids on the Block - Merry, Merry Christmas.wav" WAVE
    INDEX 01 00:00:00
  TRACK 18 AUDIO
    TITLE "Christmas in Hollis"
    PERFORMER "Run-D.M.C."
    ISRC USAR10001682
    INDEX 00 04:04:51
FILE "18 - Run-D.M.C. - Christmas in Hollis.wav" WAVE
    INDEX 01 00:00:00
  TRACK 19 AUDIO
    TITLE "All I Want for Christmas Is New Year's Day"
    PERFORMER "Hurts"
    ISRC GBARL1001502
    INDEX 00 02:57:63
FILE "19 - Hurts - All I Want for Christmas Is New Year's Day.wav" WAVE
    INDEX 01 00:00:00

Disc 3 | 01:02:33

01.Dolly Parton - We Three Kings (02:47)
02.Johnny Cash - Little Drummer Boy (02:35)
03.Art Garfunkel - O Come All Ye Faithful (02:09)
04.Aretha Franklin - Joy to the World (03:04)
05.Kenny G - God Rest Ye, Merry Gentleman (04:35)
06.Mahalia Jackson - Hark! The Herald Angels Sing (03:39)
07.Paul Potts - O Holy Night (04:24)
08.Simon & Garfunkel - Go Tell It on the Mountain (02:06)
09.The Manhattan Transfer - It Came Upon a Midnight Clear (05:56)
10.Roger Whittaker - Ding! Dong! Merrily on High (04:48)
11.Mary Chapin Carpenter - Bells Are Ringing (03:32)
12.The Ames Brothers - Good King Wenceslas (02:19)
13.Julie Andrews - In the Bleak Midwinter (03:51)
14.Vic Damone - Deck the Halls (01:56)
15.Patti Page - We Wish You a Merry Christmas (02:02)
16.Gladys Knight & The Pips - Do You Hear What I Hear (03:59)
17.Jerry Vale - Silver Bells (03:22)
18.Harry Belafonte - The Twelve Days of Christmas (03:49)
19.Mario Lanza - O Christmas Tree (01:50)

лог создания рипа

Exact Audio Copy V1.1 from 23. June 2015
EAC extraction logfile from 28. November 2015, 23:42
Various Artists / Ultimate Christmas: 4CDs of Great Christmas Music (Disc 3)
Used drive  : ASUS    BW-12D1S-U   Adapter: 1  ID: 1
Read mode               : Secure
Utilize accurate stream : Yes
Defeat audio cache      : Yes
Make use of C2 pointers : No
Read offset correction                      : 667
Overread into Lead-In and Lead-Out          : No
Fill up missing offset samples with silence : Yes
Delete leading and trailing silent blocks   : No
Null samples used in CRC calculations       : Yes
Used interface                              : Native Win32 interface for Win NT & 2000
Gap handling                                : Appended to previous track
Used output format              : User Defined Encoder
Selected bitrate                : 1024 kBit/s
Quality                         : High
Add ID3 tag                     : No
Command line compressor         : C:\Program Files (x86)\Kodeki za Glasbo\flac v1.3.1\win64\flac.exe
Additional command line options : -8 -V -T "ARTIST=%artist%" -T "TITLE=%title%" -T "ALBUM=%albumtitle%" -T "DATE=%year%" -T "TRACKNUMBER=%tracknr%" -T "TOTALTRACKS=%numtracks%" -T "GENRE=%genre%" -T "ALBUMARTIST=%albumartist%" -T "ALBUM ARTIST=%albumartist%" -T "COMMENT=EAC Secure Mode, Test & Copy, AccurateRip, FLAC -8" %source%
TOC of the extracted CD
     Track |   Start  |  Length  | Start sector | End sector
    ---------------------------------------------------------
        1  |  0:00.00 |  2:46.54 |         0    |    12503
        2  |  2:46.54 |  2:34.10 |     12504    |    24063
        3  |  5:20.64 |  2:08.22 |     24064    |    33685
        4  |  7:29.11 |  3:03.31 |     33686    |    47441
        5  | 10:32.42 |  4:34.23 |     47442    |    68014
        6  | 15:06.65 |  3:38.22 |     68015    |    84386
        7  | 18:45.12 |  4:23.41 |     84387    |   104152
        8  | 23:08.53 |  2:05.01 |    104153    |   113528
        9  | 25:13.54 |  5:55.68 |    113529    |   140221
       10  | 31:09.47 |  4:47.03 |    140222    |   161749
       11  | 35:56.50 |  3:31.14 |    161750    |   177588
       12  | 39:27.64 |  2:18.33 |    177589    |   187971
       13  | 41:46.22 |  3:50.46 |    187972    |   205267
       14  | 45:36.68 |  1:55.20 |    205268    |   213912
       15  | 47:32.13 |  2:01.33 |    213913    |   223020
       16  | 49:33.46 |  3:58.68 |    223021    |   240938
       17  | 53:32.39 |  3:21.34 |    240939    |   256047
       18  | 56:53.73 |  3:48.62 |    256048    |   273209
       19  | 60:42.60 |  1:49.44 |    273210    |   281428
Track  1
     Filename K:\3. my rip in preparation\3 - in treatment\1\CD3\01 - Dolly Parton - We Three Kings.wav
     Pre-gap length  0:00:02.00
     Peak level 98.8 %
     Extraction speed 4.2 X
     Track quality 100.0 %
     Test CRC A7C92EF8
     Copy CRC A7C92EF8
     Track not present in AccurateRip database
     Copy OK
Track  2
     Filename K:\3. my rip in preparation\3 - in treatment\1\CD3\02 - Johnny Cash - Little Drummer Boy.wav
     Pre-gap length  0:00:01.77
     Peak level 99.7 %
     Extraction speed 4.4 X
     Track quality 100.0 %
     Test CRC 33ED987F
     Copy CRC 33ED987F
     Track not present in AccurateRip database
     Copy OK
Track  3
     Filename K:\3. my rip in preparation\3 - in treatment\1\CD3\03 - Art Garfunkel - O Come All Ye Faithful.wav
     Pre-gap length  0:00:01.77
     Peak level 99.7 %
     Extraction speed 4.5 X
     Track quality 100.0 %
     Test CRC BC31A6D9
     Copy CRC BC31A6D9
     Track not present in AccurateRip database
     Copy OK
Track  4
     Filename K:\3. my rip in preparation\3 - in treatment\1\CD3\04 - Aretha Franklin - Joy to the World.wav
     Pre-gap length  0:00:01.77
     Peak level 98.8 %
     Extraction speed 5.1 X
     Track quality 100.0 %
     Test CRC B3242EDC
     Copy CRC B3242EDC
     Track not present in AccurateRip database
     Copy OK
Track  5
     Filename K:\3. my rip in preparation\3 - in treatment\1\CD3\05 - Kenny G - God Rest Ye, Merry Gentleman.wav
     Pre-gap length  0:00:01.77
     Peak level 99.7 %
     Extraction speed 5.7 X
     Track quality 100.0 %
     Test CRC 1F0E741D
     Copy CRC 1F0E741D
     Track not present in AccurateRip database
     Copy OK
Track  6
     Filename K:\3. my rip in preparation\3 - in treatment\1\CD3\06 - Mahalia Jackson - Hark! The Herald Angels Sing.wav
     Pre-gap length  0:00:01.77
     Peak level 99.7 %
     Extraction speed 6.0 X
     Track quality 100.0 %
     Test CRC 1D6E37FF
     Copy CRC 1D6E37FF
     Track not present in AccurateRip database
     Copy OK
Track  7
     Filename K:\3. my rip in preparation\3 - in treatment\1\CD3\07 - Paul Potts - O Holy Night.wav
     Pre-gap length  0:00:01.77
     Peak level 87.8 %
     Extraction speed 6.4 X
     Track quality 100.0 %
     Test CRC 181CFCAE
     Copy CRC 181CFCAE
     Track not present in AccurateRip database
     Copy OK
Track  8
     Filename K:\3. my rip in preparation\3 - in treatment\1\CD3\08 - Simon & Garfunkel - Go Tell It on the Mountain.wav
     Pre-gap length  0:00:01.77
     Peak level 99.7 %
     Extraction speed 5.9 X
     Track quality 100.0 %
     Test CRC 4E501D3C
     Copy CRC 4E501D3C
     Track not present in AccurateRip database
     Copy OK
Track  9
     Filename K:\3. my rip in preparation\3 - in treatment\1\CD3\09 - The Manhattan Transfer - It Came Upon a Midnight Clear.wav
     Pre-gap length  0:00:01.77
     Peak level 99.7 %
     Extraction speed 6.6 X
     Track quality 99.9 %
     Test CRC F5F0C151
     Copy CRC F5F0C151
     Track not present in AccurateRip database
     Copy OK
Track 10
     Filename K:\3. my rip in preparation\3 - in treatment\1\CD3\10 - Roger Whittaker - Ding! Dong! Merrily on High.wav
     Pre-gap length  0:00:01.77
     Peak level 99.7 %
     Extraction speed 7.4 X
     Track quality 100.0 %
     Test CRC EAE610BB
     Copy CRC EAE610BB
     Track not present in AccurateRip database
     Copy OK
Track 11
     Filename K:\3. my rip in preparation\3 - in treatment\1\CD3\11 - Mary Chapin Carpenter - Bells Are Ringing.wav
     Pre-gap length  0:00:01.77
     Peak level 99.7 %
     Extraction speed 7.3 X
     Track quality 100.0 %
     Test CRC 73EEC565
     Copy CRC 73EEC565
     Track not present in AccurateRip database
     Copy OK
Track 12
     Filename K:\3. my rip in preparation\3 - in treatment\1\CD3\12 - The Ames Brothers - Good King Wenceslas.wav
     Pre-gap length  0:00:01.77
     Peak level 98.4 %
     Extraction speed 5.8 X
     Track quality 99.9 %
     Test CRC 74BF9ED9
     Copy CRC 74BF9ED9
     Track not present in AccurateRip database
     Copy OK
Track 13
     Filename K:\3. my rip in preparation\3 - in treatment\1\CD3\13 - Julie Andrews - In the Bleak Midwinter.wav
     Pre-gap length  0:00:01.77
     Peak level 93.8 %
     Extraction speed 7.8 X
     Track quality 100.0 %
     Test CRC 9A1A8432
     Copy CRC 9A1A8432
     Track not present in AccurateRip database
     Copy OK
Track 14
     Filename K:\3. my rip in preparation\3 - in treatment\1\CD3\14 - Vic Damone - Deck the Halls.wav
     Pre-gap length  0:00:01.77
     Peak level 98.8 %
     Extraction speed 6.8 X
     Track quality 100.0 %
     Test CRC 83995EA7
     Copy CRC 83995EA7
     Track not present in AccurateRip database
     Copy OK
Track 15
     Filename K:\3. my rip in preparation\3 - in treatment\1\CD3\15 - Patti Page - We Wish You a Merry Christmas.wav
     Pre-gap length  0:00:01.77
     Peak level 97.7 %
     Extraction speed 7.0 X
     Track quality 100.0 %
     Test CRC D020652C
     Copy CRC D020652C
     Track not present in AccurateRip database
     Copy OK
Track 16
     Filename K:\3. my rip in preparation\3 - in treatment\1\CD3\16 - Gladys Knight & The Pips - Do You Hear What I Hear.wav
     Pre-gap length  0:00:01.77
     Peak level 97.7 %
     Extraction speed 8.2 X
     Track quality 100.0 %
     Test CRC FABE73EC
     Copy CRC FABE73EC
     Track not present in AccurateRip database
     Copy OK
Track 17
     Filename K:\3. my rip in preparation\3 - in treatment\1\CD3\17 - Jerry Vale - Silver Bells.wav
     Pre-gap length  0:00:01.77
     Peak level 99.7 %
     Extraction speed 8.1 X
     Track quality 100.0 %
     Test CRC 318C4B14
     Copy CRC 318C4B14
     Track not present in AccurateRip database
     Copy OK
Track 18
     Filename K:\3. my rip in preparation\3 - in treatment\1\CD3\18 - Harry Belafonte - The Twelve Days of Christmas.wav
     Pre-gap length  0:00:01.77
     Peak level 99.7 %
     Extraction speed 8.5 X
     Track quality 100.0 %
     Test CRC B0F4A6E4
     Copy CRC B0F4A6E4
     Track not present in AccurateRip database
     Copy OK
Track 19
     Filename K:\3. my rip in preparation\3 - in treatment\1\CD3\19 - Mario Lanza - O Christmas Tree.wav
     Pre-gap length  0:00:01.77
     Peak level 99.7 %
     Extraction speed 6.0 X
     Track quality 99.9 %
     Test CRC 8D9304FC
     Copy CRC 8D9304FC
     Track not present in AccurateRip database
     Copy OK
None of the tracks are present in the AccurateRip database
No errors occurred
End of status report
---- CUETools DB Plugin V2.1.6
[CTDB TOCID: 0OGa3R61xbz9MTHSMSzuebBi40o-] found
Submit result: already submitted
Track | CTDB Status
  1   | (2/2) Accurately ripped
  2   | (2/2) Accurately ripped
  3   | (2/2) Accurately ripped
  4   | (2/2) Accurately ripped
  5   | (2/2) Accurately ripped
  6   | (2/2) Accurately ripped
  7   | (2/2) Accurately ripped
  8   | (2/2) Accurately ripped
  9   | (2/2) Accurately ripped
10   | (2/2) Accurately ripped
11   | (2/2) Accurately ripped
12   | (2/2) Accurately ripped
13   | (2/2) Accurately ripped
14   | (2/2) Accurately ripped
15   | (2/2) Accurately ripped
16   | (2/2) Accurately ripped
17   | (2/2) Accurately ripped
18   | (2/2) Accurately ripped
19   | (2/2) Accurately ripped

содержание индексной карты *cue

REM GENRE Pop
REM DATE 2015
REM DISCID 0F0EA813
REM COMMENT "ExactAudioCopy v1.1"
CATALOG 0888751478720
PERFORMER "Various Artists"
TITLE "Ultimate Christmas: 4CDs of Great Christmas Music (Disc 3)"
FILE "01 - Dolly Parton - We Three Kings.wav" WAVE
  TRACK 01 AUDIO
    TITLE "We Three Kings"
    PERFORMER "Dolly Parton"
    ISRC USSM19931509
    INDEX 01 00:00:00
  TRACK 02 AUDIO
    TITLE "Little Drummer Boy"
    PERFORMER "Johnny Cash"
    ISRC USSM15900950
    INDEX 00 02:44:71
FILE "02 - Johnny Cash - Little Drummer Boy.wav" WAVE
    INDEX 01 00:00:00
  TRACK 03 AUDIO
    TITLE "O Come All Ye Faithful"
    PERFORMER "Art Garfunkel"
    INDEX 00 02:32:27
FILE "03 - Art Garfunkel - O Come All Ye Faithful.wav" WAVE
    INDEX 01 00:00:00
  TRACK 04 AUDIO
    TITLE "Joy to the World"
    PERFORMER "Aretha Franklin"
    ISRC USAR19400002
    INDEX 00 02:06:39
FILE "04 - Aretha Franklin - Joy to the World.wav" WAVE
    INDEX 01 00:00:00
  TRACK 05 AUDIO
    TITLE "God Rest Ye, Merry Gentleman"
    PERFORMER "Kenny G"
    INDEX 00 03:01:48
FILE "05 - Kenny G - God Rest Ye, Merry Gentleman.wav" WAVE
    INDEX 01 00:00:00
  TRACK 06 AUDIO
    TITLE "Hark! The Herald Angels Sing"
    PERFORMER "Mahalia Jackson"
    ISRC USSM16200014
    INDEX 00 04:32:40
FILE "06 - Mahalia Jackson - Hark! The Herald Angels Sing.wav" WAVE
    INDEX 01 00:00:00
  TRACK 07 AUDIO
    TITLE "O Holy Night"
    PERFORMER "Paul Potts"
    ISRC GBHMU0700044
    INDEX 00 03:36:39
FILE "07 - Paul Potts - O Holy Night.wav" WAVE
    INDEX 01 00:00:00
  TRACK 08 AUDIO
    TITLE "Go Tell It on the Mountain"
    PERFORMER "Simon & Garfunkel"
    ISRC USSM16401416
    INDEX 00 04:21:58
FILE "08 - Simon & Garfunkel - Go Tell It on the Mountain.wav" WAVE
    INDEX 01 00:00:00
  TRACK 09 AUDIO
    TITLE "It Came Upon a Midnight Clear"
    PERFORMER "The Manhattan Transfer"
    ISRC USSM19200924
    INDEX 00 02:03:18
FILE "09 - The Manhattan Transfer - It Came Upon a Midnight Clear.wav" WAVE
    INDEX 01 00:00:00
  TRACK 10 AUDIO
    TITLE "Ding! Dong! Merrily on High"
    PERFORMER "Roger Whittaker"
    ISRC USBI10000149
    INDEX 00 05:54:10
FILE "10 - Roger Whittaker - Ding! Dong! Merrily on High.wav" WAVE
    INDEX 01 00:00:00
  TRACK 11 AUDIO
    TITLE "Bells Are Ringing"
    PERFORMER "Mary Chapin Carpenter"
    ISRC USSM19918731
    INDEX 00 04:45:20
FILE "11 - Mary Chapin Carpenter - Bells Are Ringing.wav" WAVE
    INDEX 01 00:00:00
  TRACK 12 AUDIO
    TITLE "Good King Wenceslas"
    PERFORMER "The Ames Brothers"
    ISRC USRC10300608
    INDEX 00 03:29:31
FILE "12 - The Ames Brothers - Good King Wenceslas.wav" WAVE
    INDEX 01 00:00:00
  TRACK 13 AUDIO
    TITLE "In the Bleak Midwinter"
    PERFORMER "Julie Andrews"
    INDEX 00 02:16:50
FILE "13 - Julie Andrews - In the Bleak Midwinter.wav" WAVE
    INDEX 01 00:00:00
  TRACK 14 AUDIO
    TITLE "Deck the Halls"
    PERFORMER "Vic Damone"
    ISRC USRC19305787
    INDEX 00 03:48:63
FILE "14 - Vic Damone - Deck the Halls.wav" WAVE
    INDEX 01 00:00:00
  TRACK 15 AUDIO
    TITLE "We Wish You a Merry Christmas"
    PERFORMER "Patti Page"
    ISRC USSM10028709
    INDEX 00 01:53:37
FILE "15 - Patti Page - We Wish You a Merry Christmas.wav" WAVE
    INDEX 01 00:00:00
  TRACK 16 AUDIO
    TITLE "Do You Hear What I Hear"
    PERFORMER "Gladys Knight & The Pips"
    ISRC USBR17500006
    INDEX 00 01:59:50
FILE "16 - Gladys Knight & The Pips - Do You Hear What I Hear.wav" WAVE
    INDEX 01 00:00:00
  TRACK 17 AUDIO
    TITLE "Silver Bells"
    PERFORMER "Jerry Vale"
    INDEX 00 03:57:10
FILE "17 - Jerry Vale - Silver Bells.wav" WAVE
    INDEX 01 00:00:00
  TRACK 18 AUDIO
    TITLE "The Twelve Days of Christmas"
    PERFORMER "Harry Belafonte"
    ISRC USRC15807089
    INDEX 00 03:19:51
FILE "18 - Harry Belafonte - The Twelve Days of Christmas.wav" WAVE
    INDEX 01 00:00:00
  TRACK 19 AUDIO
    TITLE "O Christmas Tree"
    PERFORMER "Mario Lanza"
    ISRC USBC15900011
    INDEX 00 03:47:04
FILE "19 - Mario Lanza - O Christmas Tree.wav" WAVE
    INDEX 01 00:00:00

Disc 4 | 00:57:01

01.Daryl Hall & John Oates - Jingle Bell Rock (02:06)
02.Whitney Houston - One Wish (for Christmas) (04:14)
03.Doris Day - I'll Be Home for Christmas (02:27)
04.Engelbert Humperdinck - Winter World of Love (03:20)
05.Gloria Estefan - Love on Layaway (04:27)
06.Shakin' Stevens - The Best Christmas of Them All (03:28)
07.Roy Orbison - Pretty Paper (02:46)
08.John Denver - Rudolph the Red Nosed Reindeer (01:44)
09.Gene Autry - Here Comes Santa Claus (Right Down Santa Claus Lane) (02:32)
10.Gene Autry & Rosemary Clooney - The Night Before Christmas Song (02:50)
11.Buster Poindexter & His Banshees of Blue - 'Zat You Santa Claus (02:50)
12.Jimmy Boyd - I Saw Mommy Kissing Santa Claus (02:32)
13.Spike Jones & His City Slickers - All I Want for Christmas (Is My Two Front Teeth) (03:09)
14.The Bouncing Czecks - I'm a Little Christmas Cracker (02:24)
15.Willie Nelson - Frosty the Snowman (02:26)
16.Duke Ellington & His Orchestra - Jingle Bells (03:21)
17.Il Divo - The Power of Love (la fuerza mayor) (05:02)
18.Jose Carreras, Placido Domingo, Luciano Pavarotti - Ave Maria, Dolce Maria (02:46)
19.Susan Boyle - Auld Lang Syne (02:45)

лог создания рипа

Exact Audio Copy V1.1 from 23. June 2015
EAC extraction logfile from 29. November 2015, 0:45
Various Artists / Ultimate Christmas: 4CDs of Great Christmas Music (Disc 4)
Used drive  : Optiarc DVD RW AD-7280S   Adapter: 1  ID: 0
Read mode               : Secure
Utilize accurate stream : Yes
Defeat audio cache      : Yes
Make use of C2 pointers : No
Read offset correction                      : 48
Overread into Lead-In and Lead-Out          : No
Fill up missing offset samples with silence : Yes
Delete leading and trailing silent blocks   : No
Null samples used in CRC calculations       : Yes
Used interface                              : Native Win32 interface for Win NT & 2000
Gap handling                                : Appended to previous track
Used output format              : User Defined Encoder
Selected bitrate                : 1024 kBit/s
Quality                         : High
Add ID3 tag                     : No
Command line compressor         : C:\Program Files (x86)\Kodeki za Glasbo\flac v1.3.1\win64\flac.exe
Additional command line options : -8 -V -T "ARTIST=%artist%" -T "TITLE=%title%" -T "ALBUM=%albumtitle%" -T "DATE=%year%" -T "TRACKNUMBER=%tracknr%" -T "TOTALTRACKS=%numtracks%" -T "GENRE=%genre%" -T "ALBUMARTIST=%albumartist%" -T "ALBUM ARTIST=%albumartist%" -T "COMMENT=EAC Secure Mode, Test & Copy, AccurateRip, FLAC -8" %source%
TOC of the extracted CD
     Track |   Start  |  Length  | Start sector | End sector
    ---------------------------------------------------------
        1  |  0:00.00 |  2:05.58 |         0    |     9432
        2  |  2:05.58 |  4:13.46 |      9433    |    28453
        3  |  6:19.29 |  2:26.68 |     28454    |    39471
        4  |  8:46.22 |  3:19.31 |     39472    |    54427
        5  | 12:05.53 |  4:26.32 |     54428    |    74409
        6  | 16:32.10 |  3:27.20 |     74410    |    89954
        7  | 19:59.30 |  2:45.48 |     89955    |   102377
        8  | 22:45.03 |  1:43.65 |    102378    |   110167
        9  | 24:28.68 |  2:31.70 |    110168    |   121562
       10  | 27:00.63 |  2:49.54 |    121563    |   134291
       11  | 29:50.42 |  2:49.56 |    134292    |   147022
       12  | 32:40.23 |  2:31.35 |    147023    |   158382
       13  | 35:11.58 |  3:08.53 |    158383    |   172535
       14  | 38:20.36 |  2:23.50 |    172536    |   183310
       15  | 40:44.11 |  2:25.16 |    183311    |   194201
       16  | 43:09.27 |  3:20.25 |    194202    |   209226
       17  | 46:29.52 |  5:01.25 |    209227    |   231826
       18  | 51:31.02 |  2:45.04 |    231827    |   244205
       19  | 54:16.06 |  2:44.27 |    244206    |   256532
Track  1
     Filename K:\3. my rip in preparation\3 - in treatment\1\CD4\01 - Daryl Hall & John Oates - Jingle Bell Rock.wav
     Pre-gap length  0:00:02.00
     Peak level 79.8 %
     Extraction speed 2.0 X
     Track quality 100.0 %
     Test CRC DBB612A5
     Copy CRC DBB612A5
     Track not present in AccurateRip database
     Copy OK
Track  2
     Filename K:\3. my rip in preparation\3 - in treatment\1\CD4\02 - Whitney Houston - One Wish (for Christmas).wav
     Pre-gap length  0:00:01.77
     Peak level 98.8 %
     Extraction speed 2.2 X
     Track quality 99.9 %
     Test CRC 1E1312DD
     Copy CRC 1E1312DD
     Track not present in AccurateRip database
     Copy OK
Track  3
     Filename K:\3. my rip in preparation\3 - in treatment\1\CD4\03 - Doris Day - I'll Be Home for Christmas.wav
     Pre-gap length  0:00:01.77
     Peak level 89.9 %
     Extraction speed 2.5 X
     Track quality 100.0 %
     Test CRC A529DA33
     Copy CRC A529DA33
     Track not present in AccurateRip database
     Copy OK
Track  4
     Filename K:\3. my rip in preparation\3 - in treatment\1\CD4\04 - Engelbert Humperdinck - Winter World of Love.wav
     Pre-gap length  0:00:01.77
     Peak level 98.8 %
     Extraction speed 2.8 X
     Track quality 100.0 %
     Test CRC 6EB2768A
     Copy CRC 6EB2768A
     Track not present in AccurateRip database
     Copy OK
Track  5
     Filename K:\3. my rip in preparation\3 - in treatment\1\CD4\05 - Gloria Estefan - Love on Layaway.wav
     Pre-gap length  0:00:01.77
     Peak level 96.6 %
     Extraction speed 3.1 X
     Track quality 100.0 %
     Test CRC E9E5DF34
     Copy CRC E9E5DF34
     Track not present in AccurateRip database
     Copy OK
Track  6
     Filename K:\3. my rip in preparation\3 - in treatment\1\CD4\06 - Shakin' Stevens - The Best Christmas of Them All.wav
     Pre-gap length  0:00:01.77
     Peak level 97.1 %
     Extraction speed 3.2 X
     Track quality 100.0 %
     Test CRC EAA13A23
     Copy CRC EAA13A23
     Track not present in AccurateRip database
     Copy OK
Track  7
     Filename K:\3. my rip in preparation\3 - in treatment\1\CD4\07 - Roy Orbison - Pretty Paper.wav
     Pre-gap length  0:00:01.77
     Peak level 98.8 %
     Extraction speed 2.7 X
     Track quality 99.9 %
     Test CRC A6C83F97
     Copy CRC A6C83F97
     Track not present in AccurateRip database
     Copy OK
Track  8
     Filename K:\3. my rip in preparation\3 - in treatment\1\CD4\08 - John Denver - Rudolph the Red Nosed Reindeer.wav
     Pre-gap length  0:00:01.77
     Peak level 98.8 %
     Extraction speed 3.0 X
     Track quality 100.0 %
     Test CRC CAE24E2C
     Copy CRC CAE24E2C
     Track not present in AccurateRip database
     Copy OK
Track  9
     Filename K:\3. my rip in preparation\3 - in treatment\1\CD4\09 - Gene Autry - Here Comes Santa Claus (Right Down Santa Claus Lane).wav
     Pre-gap length  0:00:01.77
     Peak level 96.4 %
     Extraction speed 3.3 X
     Track quality 100.0 %
     Test CRC 377209C4
     Copy CRC 377209C4
     Track not present in AccurateRip database
     Copy OK
Track 10
     Filename K:\3. my rip in preparation\3 - in treatment\1\CD4\10 - Gene Autry & Rosemary Clooney - The Night Before Christmas Song.wav
     Pre-gap length  0:00:01.77
     Peak level 89.1 %
     Extraction speed 3.5 X
     Track quality 100.0 %
     Test CRC 82E3FFB7
     Copy CRC 82E3FFB7
     Track not present in AccurateRip database
     Copy OK
Track 11
     Filename K:\3. my rip in preparation\3 - in treatment\1\CD4\11 - Buster Poindexter & His Banshees of Blue - 'Zat You Santa Claus.wav
     Pre-gap length  0:00:01.77
     Peak level 94.2 %
     Extraction speed 3.6 X
     Track quality 100.0 %
     Test CRC EA074A21
     Copy CRC EA074A21
     Track not present in AccurateRip database
     Copy OK
Track 12
     Filename K:\3. my rip in preparation\3 - in treatment\1\CD4\12 - Jimmy Boyd - I Saw Mommy Kissing Santa Claus.wav
     Pre-gap length  0:00:01.77
     Peak level 80.7 %
     Extraction speed 3.7 X
     Track quality 100.0 %
     Test CRC 7D0991E3
     Copy CRC 7D0991E3
     Track not present in AccurateRip database
     Copy OK
Track 13
     Filename K:\3. my rip in preparation\3 - in treatment\1\CD4\13 - Spike Jones & His City Slickers - All I Want for Christmas (Is My Two Front Teeth).wav
     Pre-gap length  0:00:01.77
     Peak level 89.3 %
     Extraction speed 3.9 X
     Track quality 100.0 %
     Test CRC 389A7AE5
     Copy CRC 389A7AE5
     Track not present in AccurateRip database
     Copy OK
Track 14
     Filename K:\3. my rip in preparation\3 - in treatment\1\CD4\14 - The Bouncing Czecks - I'm a Little Christmas Cracker.wav
     Pre-gap length  0:00:01.77
     Peak level 94.0 %
     Extraction speed 3.8 X
     Track quality 100.0 %
     Test CRC 3E1134AF
     Copy CRC 3E1134AF
     Track not present in AccurateRip database
     Copy OK
Track 15
     Filename K:\3. my rip in preparation\3 - in treatment\1\CD4\15 - Willie Nelson - Frosty the Snowman.wav
     Pre-gap length  0:00:01.77
     Peak level 98.8 %
     Extraction speed 3.9 X
     Track quality 100.0 %
     Test CRC 073313F4
     Copy CRC 073313F4
     Track not present in AccurateRip database
     Copy OK
Track 16
     Filename K:\3. my rip in preparation\3 - in treatment\1\CD4\16 - Duke Ellington & His Orchestra - Jingle Bells.wav
     Pre-gap length  0:00:01.77
     Peak level 96.5 %
     Extraction speed 4.2 X
     Track quality 100.0 %
     Test CRC 37AC9D92
     Copy CRC 37AC9D92
     Track not present in AccurateRip database
     Copy OK
Track 17
     Filename K:\3. my rip in preparation\3 - in treatment\1\CD4\17 - Il Divo - The Power of Love (la fuerza mayor).wav
     Pre-gap length  0:00:01.77
     Peak level 85.1 %
     Extraction speed 4.6 X
     Track quality 100.0 %
     Test CRC 7BF750EC
     Copy CRC 7BF750EC
     Track not present in AccurateRip database
     Copy OK
Track 18
     Filename K:\3. my rip in preparation\3 - in treatment\1\CD4\18 - Jose Carreras, Placido Domingo, Luciano Pavarotti - Ave Maria, Dolce Maria.wav
     Pre-gap length  0:00:01.77
     Peak level 97.7 %
     Extraction speed 4.3 X
     Track quality 100.0 %
     Test CRC 82CB2278
     Copy CRC 82CB2278
     Track not present in AccurateRip database
     Copy OK
Track 19
     Filename K:\3. my rip in preparation\3 - in treatment\1\CD4\19 - Susan Boyle - Auld Lang Syne.wav
     Pre-gap length  0:00:01.77
     Peak level 90.0 %
     Extraction speed 3.7 X
     Track quality 99.9 %
     Test CRC 5BB2D8E5
     Copy CRC 5BB2D8E5
     Track not present in AccurateRip database
     Copy OK
None of the tracks are present in the AccurateRip database
No errors occurred
End of status report
---- CUETools DB Plugin V2.1.6
[CTDB TOCID: 27WHRBMYUm_.OqIFxP1QyXJuoDU-] found
Submit result: 27WHRBMYUm_.OqIFxP1QyXJuoDU- has been confirmed
Track | CTDB Status
  1   | (2/2) Accurately ripped
  2   | (2/2) Accurately ripped
  3   | (2/2) Accurately ripped
  4   | (2/2) Accurately ripped
  5   | (2/2) Accurately ripped
  6   | (2/2) Accurately ripped
  7   | (2/2) Accurately ripped
  8   | (2/2) Accurately ripped
  9   | (2/2) Accurately ripped
10   | (2/2) Accurately ripped
11   | (2/2) Accurately ripped
12   | (2/2) Accurately ripped
13   | (2/2) Accurately ripped
14   | (2/2) Accurately ripped
15   | (2/2) Accurately ripped
16   | (2/2) Accurately ripped
17   | (2/2) Accurately ripped
18   | (2/2) Accurately ripped
19   | (2/2) Accurately ripped

содержание индексной карты *cue

REM GENRE Pop
REM DATE 2015
REM DISCID 020D5C13
REM COMMENT "ExactAudioCopy v1.1"
CATALOG 0888751478720
PERFORMER "Various Artists"
TITLE "Ultimate Christmas: 4CDs of Great Christmas Music (Disc 4)"
FILE "01 - Daryl Hall & John Oates - Jingle Bell Rock.wav" WAVE
  TRACK 01 AUDIO
    TITLE "Jingle Bell Rock"
    PERFORMER "Daryl Hall & John Oates"
    ISRC USRC10400165
    INDEX 01 00:00:00
  TRACK 02 AUDIO
    TITLE "One Wish (for Christmas)"
    PERFORMER "Whitney Houston"
    ISRC USAR10301187
    INDEX 00 02:04:00
FILE "02 - Whitney Houston - One Wish (for Christmas).wav" WAVE
    INDEX 01 00:00:00
  TRACK 03 AUDIO
    TITLE "I'll Be Home for Christmas"
    PERFORMER "Doris Day"
    ISRC USSM10018217
    INDEX 00 04:11:63
FILE "03 - Doris Day - I'll Be Home for Christmas.wav" WAVE
    INDEX 01 00:00:00
  TRACK 04 AUDIO
    TITLE "Winter World of Love"
    PERFORMER "Engelbert Humperdinck"
    ISRC USSM18000048
    INDEX 00 02:25:10
FILE "04 - Engelbert Humperdinck - Winter World of Love.wav" WAVE
    INDEX 01 00:00:00
  TRACK 05 AUDIO
    TITLE "Love on Layaway"
    PERFORMER "Gloria Estefan"
    ISRC USSM19918732
    INDEX 00 03:17:48
FILE "05 - Gloria Estefan - Love on Layaway.wav" WAVE
    INDEX 01 00:00:00
  TRACK 06 AUDIO
    TITLE "The Best Christmas of Them All"
    PERFORMER "Shakin' Stevens"
    ISRC GBARL0801719
    INDEX 00 04:24:49
FILE "06 - Shakin' Stevens - The Best Christmas of Them All.wav" WAVE
    INDEX 01 00:00:00
  TRACK 07 AUDIO
    TITLE "Pretty Paper"
    PERFORMER "Roy Orbison"
    ISRC USSM16301093
    INDEX 00 03:25:37
FILE "07 - Roy Orbison - Pretty Paper.wav" WAVE
    INDEX 01 00:00:00
  TRACK 08 AUDIO
    TITLE "Rudolph the Red Nosed Reindeer"
    PERFORMER "John Denver"
    ISRC USRC17507376
    INDEX 00 02:43:65
FILE "08 - John Denver - Rudolph the Red Nosed Reindeer.wav" WAVE
    INDEX 01 00:00:00
  TRACK 09 AUDIO
    TITLE "Here Comes Santa Claus (Right Down Santa Claus Lane)"
    PERFORMER "Gene Autry"
    ISRC USSM10309760
    INDEX 00 01:42:07
FILE "09 - Gene Autry - Here Comes Santa Claus (Right Down Santa Claus Lane).wav" WAVE
    INDEX 01 00:00:00
  TRACK 10 AUDIO
    TITLE "The Night Before Christmas Song"
    PERFORMER "Gene Autry & Rosemary Clooney"
    ISRC USSM10309768
    INDEX 00 02:30:12
FILE "10 - Gene Autry & Rosemary Clooney - The Night Before Christmas Song.wav" WAVE
    INDEX 01 00:00:00
  TRACK 11 AUDIO
    TITLE "'Zat You Santa Claus"
    PERFORMER "Buster Poindexter & His Banshees of Blue"
    ISRC USRC10400181
    INDEX 00 02:47:71
FILE "11 - Buster Poindexter & His Banshees of Blue - 'Zat You Santa Claus.wav" WAVE
    INDEX 01 00:00:00
  TRACK 12 AUDIO
    TITLE "I Saw Mommy Kissing Santa Claus"
    PERFORMER "Jimmy Boyd"
    ISRC USSM15200457
    INDEX 00 02:47:73
FILE "12 - Jimmy Boyd - I Saw Mommy Kissing Santa Claus.wav" WAVE
    INDEX 01 00:00:00
  TRACK 13 AUDIO
    TITLE "All I Want for Christmas (Is My Two Front Teeth)"
    PERFORMER "Spike Jones & His City Slickers"
    ISRC USRC14705953
    INDEX 00 02:29:52
FILE "13 - Spike Jones & His City Slickers - All I Want for Christmas (Is My Two Front Teeth).wav" WAVE
    INDEX 01 00:00:00
  TRACK 14 AUDIO
    TITLE "I'm a Little Christmas Cracker"
    PERFORMER "The Bouncing Czecks"
    ISRC GBARL0400070
    INDEX 00 03:06:70
FILE "14 - The Bouncing Czecks - I'm a Little Christmas Cracker.wav" WAVE
    INDEX 01 00:00:00
  TRACK 15 AUDIO
    TITLE "Frosty the Snowman"
    PERFORMER "Willie Nelson"
    ISRC USSM19905063
    INDEX 00 02:21:67
FILE "15 - Willie Nelson - Frosty the Snowman.wav" WAVE
    INDEX 01 00:00:00
  TRACK 16 AUDIO
    TITLE "Jingle Bells"
    PERFORMER "Duke Ellington & His Orchestra"
    ISRC USSM16201064
    INDEX 00 02:23:33
FILE "16 - Duke Ellington & His Orchestra - Jingle Bells.wav" WAVE
    INDEX 01 00:00:00
  TRACK 17 AUDIO
    TITLE "The Power of Love (la fuerza mayor)"
    PERFORMER "Il Divo"
    ISRC GBHMU0800104
    INDEX 00 03:18:42
FILE "17 - Il Divo - The Power of Love (la fuerza mayor).wav" WAVE
    INDEX 01 00:00:00
  TRACK 18 AUDIO
    TITLE "Ave Maria, Dolce Maria"
    PERFORMER "Jose Carreras, Placido Domingo, Luciano Pavarotti"
    ISRC USSM10010293
    INDEX 00 04:59:42
FILE "18 - Jose Carreras, Placido Domingo, Luciano Pavarotti - Ave Maria, Dolce Maria.wav" WAVE
    INDEX 01 00:00:00
  TRACK 19 AUDIO
    TITLE "Auld Lang Syne"
    PERFORMER "Susan Boyle"
    ISRC GBHMU1000055
    INDEX 00 02:43:21
FILE "19 - Susan Boyle - Auld Lang Syne.wav" WAVE
    INDEX 01 00:00:00
--Не забываем говорить
Яндекс.Метрика
Рейтинг@Mail.ru