[ Сегодня на трекере фрилич! Идет свободное скачивание без начисления Download ]

Смертельный оргазм / Deathgasm (2015) BDRip 720p | L

 

Создавать темы 21-Дек-2015 20:50

Смертельный оргазм / DeathgasmГод выпуска: 2015
Жанр: ужасы, комедия
Режиссер: Джейсон Ли Хауден
В ролях:
Мило Коуторн, Джеймс Блейк, Кимберли Кроссман, Сэм Беркли, Дэниэл Крессвелл, Делани Таброн, Стефан Уре, Колин Мой, Джоди Риммер, Ник Хоскинс-Смит
О фильме:
Два парня создают хеви металлическую группу. Но в момент их игры они пускают в этот мир злые силы, которые обещают им славу и величие.


Выпущено: Новая Зеландия / Metalheads, MPI Media Group, New Zealand Film Commission, Timpson Films
Продолжительность: 01:26:06
Озвучивание: Любительское (многоголосое) [Сутудия "Paradox & Omskbird records"]
Роли озвучивали: Алёна Соколова, Алексей Гнеушев, Паевл Ярощик и Алекс Дьяк
Перевод: Татьяна Масаковская

Файл
Формат: MKV
Качество: BDRip 720p
Видео: MPEG-4 AVC, 5730 kb/s, 1280x544
Аудио: Russian: AC3, 448 kb/s (6 ch) / English: DTS, 1510 kb/s (6 ch)

MI

Format                         : Matroska
Format version                 : Version 2
File size                      : 4.62 GiB
Duration                       : 1h 26mn
Overall bit rate               : 7 688 Kbps
Encoded date                   : UTC 2015-12-21 15:47:04
Writing application            : mkvmerge v7.8.0 ('River Man') 32bit built on Apr  3 2015 12:11:22
Writing library                : libebml v1.3.1 + libmatroska v1.4.2
Video
ID                             : 1
Format                         : AVC
Format/Info                    : Advanced Video Codec
Format profile                 : [email protected]
Format settings, CABAC         : Yes
Format settings, ReFrames      : 5 frames
Codec ID                       : V_MPEG4/ISO/AVC
Duration                       : 1h 26mn
Bit rate                       : 5 730 Kbps
Width                          : 1 280 pixels
Height                         : 544 pixels
Display aspect ratio           : 2.35:1
Frame rate mode                : Constant
Frame rate                     : 23.976 fps
Color space                    : YUV
Chroma subsampling             : 4:2:0
Bit depth                      : 8 bits
Scan type                      : Progressive
Bits/(Pixel*Frame)             : 0.343
Stream size                    : 3.35 GiB (73%)
Writing library                : x264 core 148 r2638 7599210
Encoding settings              : cabac=1 / ref=5 / deblock=1:0:0 / analyse=0x3:0x133 / me=umh / subme=8 / psy=1 / psy_rd=1.00:0.00 / mixed_ref=1 / me_range=16 / chroma_me=1 / trellis=1 / 8x8dct=1 / cqm=0 / deadzone=21,11 / fast_pskip=0 / chroma_qp_offset=-2 / threads=12 / lookahead_threads=2 / sliced_threads=0 / nr=0 / decimate=1 / interlaced=0 / bluray_compat=0 / constrained_intra=0 / bframes=3 / b_pyramid=2 / b_adapt=1 / b_bias=0 / direct=1 / weightb=1 / open_gop=0 / weightp=2 / keyint=250 / keyint_min=23 / scenecut=40 / intra_refresh=0 / rc_lookahead=40 / rc=2pass / mbtree=1 / bitrate=5730 / ratetol=1.0 / qcomp=0.60 / qpmin=0 / qpmax=69 / qpstep=4 / cplxblur=20.0 / qblur=0.5 / ip_ratio=1.40 / aq=1:1.00
Language                       : English
Default                        : Yes
Forced                         : No
Audio #1
ID                             : 2
Format                         : AC-3
Format/Info                    : Audio Coding 3
Mode extension                 : CM (complete main)
Format settings, Endianness    : Big
Codec ID                       : A_AC3
Duration                       : 1h 26mn
Bit rate mode                  : Constant
Bit rate                       : 448 Kbps
Channel(s)                     : 6 channels
Channel positions              : Front: L C R, Side: L R, LFE
Sampling rate                  : 48.0 KHz
Bit depth                      : 16 bits
Compression mode               : Lossy
Stream size                    : 276 MiB (6%)
Language                       : Russian
Default                        : Yes
Forced                         : No
Audio #2
ID                             : 3
Format                         : DTS
Format/Info                    : Digital Theater Systems
Mode                           : 16
Format settings, Endianness    : Big
Codec ID                       : A_DTS
Duration                       : 1h 26mn
Bit rate mode                  : Constant
Bit rate                       : 1 509 Kbps
Channel(s)                     : 6 channels
Channel positions              : Front: L C R, Side: L R, LFE
Sampling rate                  : 48.0 KHz
Bit depth                      : 16 bits
Compression mode               : Lossy
Stream size                    : 929 MiB (20%)
Language                       : English
Default                        : No
Forced                         : No

Скриншоты

Яндекс.Метрика
Рейтинг@Mail.ru