Метод [01-16 из 16] (2015,триллер, криминал, драма) WEB-DLRip | КПК

 

Создавать темы 21-Дек-2015 20:09

-• Метод •- Страна: Россия
Производство: Продюсерский центр «Среда»
Год выпуска: 2015
Жанр: триллер, криминал, драма
Режиссёр: Юрий Быков
В ролях: Константин Хабенский, Паулина Андреева, Денис Шведов, Александр Цекало, Александр Кондратенко, Екатерина Дубакина, Захар Кабанов, Светлана Лимпер, Константин Кузьмичёв, Александр Петров и др.
Перевод: Не требуется- Описание: Главная героиня Есеня хочет после окончания института работать с Родионом Меглиным — загадочным, скрытным, следователем-одиночкой с невероятной раскрываемостью дел разнообразных маньяков. Каков его метод, никто не знает. Есеня, попав к нему в стажеры, начинает понимать, что суть метода в том, что Меглин сам — маньяк. Он ИХ чувствует. Ему разрешено ликвидировать одних, другим сохранять жизнь и присматривать за ними. Любовь, которой не суждено случиться, на фоне ужасающих преступлений самых страшных маньяков последних десятилетий в нашей стране.- Качество: WEB-DLRip
Продолжительность: по ~ 00:52:00
Формат: MP4
Видео кодек: H.264 AVC
Аудио кодек: AAC-LC
Свойства видео: 640x360 (16:9), 23.976-25.000 fps, 600 kbps (0.104-109 bit/pixel)
Свойства аудио: 48.0 KHz, 2 ch, 128 kbps

MediaInfo

General
Complete name : Metod.(01.seriya).2015.WEB-DLRip.mp4
Format : MPEG-4
Format profile : Base Media
Codec ID : isom
File size : 248 MiB
Duration : 47mn 16s
Overall bit rate mode : Variable
Overall bit rate : 732 Kbps
Encoded date : UTC 2015-11-18 08:16:28
Tagged date : UTC 2015-11-18 08:16:28
Video
ID : 1
Format : AVC
Format/Info : Advanced Video Codec
Format profile : [email protected]
Format settings, CABAC : Yes
Format settings, ReFrames : 9 frames
Codec ID : avc1
Codec ID/Info : Advanced Video Coding
Duration : 47mn 16s
Bit rate : 600 Kbps
Maximum bit rate : 1 943 Kbps
Width : 640 pixels
Height : 360 pixels
Display aspect ratio : 16:9
Frame rate mode : Constant
Frame rate : 25.000 fps
Color space : YUV
Chroma subsampling : 4:2:0
Bit depth : 8 bits
Scan type : Progressive
Bits/(Pixel*Frame) : 0.104
Stream size : 203 MiB (82%)
Title : [email protected]
Writing library : x264 core 146 r2538 121396c
Encoding settings : cabac=1 / ref=9 / deblock=1:-3:-3 / analyse=0x3:0x113 / me=umh / subme=11 / psy=1 / psy_rd=1.00:0.00 / mixed_ref=1 / me_range=32 / chroma_me=1 / trellis=2 / 8x8dct=1 / cqm=0 / deadzone=21,11 / fast_pskip=0 / chroma_qp_offset=-2 / threads=6 / lookahead_threads=1 / sliced_threads=0 / nr=0 / decimate=0 / interlaced=0 / bluray_compat=0 / constrained_intra=0 / bframes=9 / b_pyramid=2 / b_adapt=2 / b_bias=0 / direct=3 / weightb=1 / open_gop=0 / weightp=2 / keyint=240 / keyint_min=24 / scenecut=40 / intra_refresh=0 / rc=2pass / mbtree=0 / bitrate=600 / ratetol=1.0 / qcomp=0.60 / qpmin=0 / qpmax=69 / qpstep=4 / cplxblur=20.0 / qblur=0.5 / ip_ratio=1.40 / pb_ratio=1.30 / aq=1:1.00
Encoded date : UTC 2015-11-18 08:16:28
Tagged date : UTC 2015-11-18 08:16:39
Audio
ID : 2
Format : AAC
Format/Info : Advanced Audio Codec
Format profile : LC
Codec ID : 40
Duration : 47mn 16s
Bit rate mode : Variable
Bit rate : 128 Kbps
Maximum bit rate : 151 Kbps
Channel(s) : 2 channels
Channel positions : Front: L R
Sampling rate : 48.0 KHz
Compression mode : Lossy
Stream size : 43.3 MiB (17%)
Encoded date : UTC 2015-11-18 06:40:48
Tagged date : UTC 2015-11-18 08:16:39

Скриншоты

Яндекс.Метрика
Рейтинг@Mail.ru