Звёздные войны: Пробуждение силы / Star Wars: The Force Awakens (Джей Джей Абрамс / J.J. Abrams) [2015, Фантастика, Фэнтези, Боевик, Приключения, CamRip] DUB (CamRip)

 

Создавать темы 20-Дек-2015 18:51

Звёздные войны: Пробуждение силы / Star Wars: The Force Awakens --- Производство: США / Bad Robot, Lucasfilm Ltd., Truenorth Productions
Жанр: Фантастика, Фэнтези, Боевик, Приключения
Режиссер: Джей Джей Абрамс
Продюсер: Джей Джей Абрамс, Брайан Берк, Кэтлин Кеннеди
Актеры: Джон Бойега, Дэйзи Ридли, Оскар Айзек, Адам Драйвер, Донал Глисон, Харрисон Форд, Марк Хэмилл, Кэрри Фишер, Макс фон Сюдов ,Энди Серкис
Описание:
Через тридцать лет после гибели Дарта Вейдера и Императора галактика по-прежнему в опасности. Государственное образование Новый Порядок во главе с их таинственным верховным лидером Сноуком и его правой рукой Кайло Реном идёт по стопам Империи, пытаясь захватить всю власть. В это нелёгкое время судьба сводит юную девушку Рей и бывшего штурмовика Нового Порядка Финна с героями времён войны с Империей — Ханом Соло, Чубаккой и Королевой Леей. Вместе они должны дать бой Новому Порядку, однако настаёт тот момент, когда становится очевидно, что лишь джедаи могут остановить Сноука и Кайло Рена. И в галактике в живых остаётся только один…

Семпл: Скачать
Дата мировой премьеры: 14 декабря 2015
Дата премьеры в России: 17 декабря 2015, «WDSSPR» 3D
Дата выхода DVD/Blu-ray релиза: 15 марта 2016, «Уолт Дисней Компани СНГ»
Продолжительность: 02:07:22
Качество видео: CamRip
Перевод: Дублированный
Вид субтитров: Отсутствуют
Видео: Xvid, 720x304, ~1401 kb/s
Аудио: AC3, 2 ch, 128 kb/s

Mediainfo:

Общее
Формат                                   : AVI
Формат/Информация                        : Audio Video Interleave
Размер файла                             : 1,37 Гбайт
Продолжительность                        : 2 ч. 7 м.
Общий поток                              : 1541 Кбит/сек
Название фильма                          : 3veZdn1e.Vo1ny.5ro0buGden1e.SiLy.2015.D.CAMRip.1400MB.ELEKTRI4KA.uniongang.tv
Программа кодирования                    : VirtualDubMod 1.5.10.3 | | (build 2550/release)
Правообладатель                          : UNIONGANG&RUSTORRENTS
Видео
Идентификатор                            : 0
Формат                                   : MPEG-4 Visual
Профиль формата                          : Advanced [email protected]
Параметр BVOP формата                    : 2
Параметр QPel формата                    : Нет
Параметр GMC формата                     : Без точки перехода
Параметр матрицы формата                 : Default (MPEG)
Идентификатор кодека                     : XVID
Идентификатор кодека/Подсказка           : XviD
Продолжительность                        : 2 ч. 7 м.
Битрейт                                  : 1401 Кбит/сек
Ширина                                   : 720 пикселей
Высота                                   : 304 пикселя
Соотношение сторон                       : 2,35:1
Частота кадров                           : 29,970 кадров/сек
Цветовое пространство                    : YUV
Субдискретизация насыщенности            : 4:2:0
Битовая глубина                          : 8 бит
Тип развёртки                            : Прогрессивная
Метод сжатия                             : С потерями
Бит/(Пиксели*Кадры)                      : 0.214
Размер потока                            : 1,25 Гбайт (91%)
Библиотека кодирования                   : XviD 1.2.1 (UTC 2008-12-04)
Аудио
Идентификатор                            : 1
Формат                                   : AC-3
Формат/Информация                        : Audio Coding 3
Расширение режима                        : CM (complete main)
Параметр Endianness формата              : Big
Идентификатор кодека                     : 2000
Продолжительность                        : 2 ч. 7 м.
Вид битрейта                             : Постоянный
Битрейт                                  : 128 Кбит/сек
Каналы                                   : 2 канала
Расположение каналов                     : Front: L R
Частота                                  : 48,0 КГц
Метод сжатия                             : С потерями
Размер потока                            : 117 Мбайт (8%)
Выравнивание                             : Разделение по промежуткам
Продолжительность промежутка             : 33  мс. (1,00 видеокадр)
Время предзагрузки промежутка            : 500  мс.
Скриншоты:

Создавать темы 20-Дек-2015 18:58 (спустя 7 минут)

Цитата:

Дата выхода DVD/Blu-ray релиза: 15 марта 2016, «Уолт Дисней Компани СНГ»
Ух, как долго ждать.

Создавать темы 20-Дек-2015 19:08 (спустя 9 минут)

Боюсь не дождемся...
Раньше скачаем :)
Яндекс.Метрика
Рейтинг@Mail.ru