(Шансон) Ирина Круг - Дискография (11CD) - 2004-2015, FLAC (image+.cue), lossless

 

Создавать темы 19-Дек-2015 20:40

-Ирина Круг - Дискография (11CD)-- Страна-производитель диска: Украина/Россия
Жанр: Шансон
Год издания диска: 2004-2015
Аудиокодек: FLAC (*.flac)
Тип рипа: image+.cue
Битрейт аудио: lossless
Продолжительность: Указана к альбому
Наличие сканов в содержимом раздачи: да-

Альбомы

2004 - Первая осень разлуки

Продолжительность: 00:47:06
Издатель (лейбл): Классик компани
Номер по каталогу: CC CD 20/04
Треклист:
01. Дорога от души к душе (дуэт с Леонидом Телешевым) [ 03:58 ]
02. Первая осень разлуки... [ 04:25 ]
03. Вот и всё [ 04:19 ]
04. Осеннее кофе [ 03:07 ]
05. Воспоминания (дуэт с Леонидом Телешевым) [ 04:37 ]
06. Господа [ 03:20 ]
07. Любовь не обмануть [ 04:26 ]
08. Люблю и ненавижу [ 02:51 ]
09. Колыбельная для мамы [ 04:19 ]
10. Как прежде [ 04:13 ]
11. Просто всё [ 04:12 ]
12. Друзьям (дуэт с Леонидом Телешевым) [ 03:16 ]

Лог создания рипа

Exact Audio Copy V1.0 beta 1 from 15. November 2010
Отчёт EAC об извлечении, выполненном 14. февраля 2012, 16:54
Ирина Круг / Первая осень разлуки...
Дисковод: ASUS    DRW-24B3ST   Adapter: 0  ID: 1
Режим чтения                 : Достоверность
Использование точного потока : Да
Отключение кэша аудио        : Да
Использование указателей C2  : Нет
Коррекция смещения при чтении                     : 6
Способность читать области Lead-in и Lead-out     : Нет
Заполнение пропущенных сэмплов тишиной            : Да
Удаление блоков с тишиной в начале и конце        : Нет
При вычислениях CRC использовались нулевые сэмплы : Да
Интерфейс                                         : Установленный внешний ASPI-интерфейс
Выходной формат          : Пользовательский кодировщик
Выбранный битрейт        : 768 kBit/s
Качество                 : Высокий
Добавление ID3-тэга      : Нет
Утилита сжатия           : C:\Program Files\Exact Audio Copy\Flac\flac.exe
Дополнительные параметры :  -T "DATE=%y" -T "GENRE=%m" -8 -V %s
TOC извлечённого CD
     Трек |   Старт  | Длительность | Начальный сектор | Конечный сектор
    ---------------------------------------------------------------------
       1  |  0:00.00 |    3:58.17   |           0      |      17866
       2  |  3:58.17 |    4:25.37   |       17867      |      37778
       3  |  8:23.54 |    4:19.16   |       37779      |      57219
       4  | 12:42.70 |    3:07.24   |       57220      |      71268
       5  | 15:50.19 |    4:37.19   |       71269      |      92062
       6  | 20:27.38 |    3:20.11   |       92063      |     107073
       7  | 23:47.49 |    4:26.52   |      107074      |     127075
       8  | 28:14.26 |    2:51.19   |      127076      |     139919
       9  | 31:05.45 |    4:19.42   |      139920      |     159386
      10  | 35:25.12 |    4:13.17   |      159387      |     178378
      11  | 39:38.29 |    4:12.14   |      178379      |     197292
      12  | 43:50.43 |    3:16.01   |      197293      |     211993
Характеристики диапазона извлечения и сообщения об ошибках
Выбранный диапазон
     Имя файла D:\Winamp\Ирина Круг - Первая осень разлуки....wav
     Пиковый уровень 98.9 %
0.3 X
     Качество диапазона 100.0 %
     CRC теста 7CF6D4D7
     CRC копии 7CF6D4D7
     Копирование... OK
Ошибок не произошло
AccurateRip: сводка
Трек  1  точность не определена (достоверность 1)  [8166E427], AccurateRip вернул [8A4E514E]
Трек  2  точность не определена (достоверность 1)  [31393D36], AccurateRip вернул [F7B099B7]
Трек  3  точность не определена (достоверность 1)  [8ECBC39C], AccurateRip вернул [30154BDE]
Трек  4  точность не определена (достоверность 1)  [0AC8BB92], AccurateRip вернул [2DF5062A]
Трек  5  точность не определена (достоверность 1)  [BD2F7F52], AccurateRip вернул [60B39905]
Трек  6  точность не определена (достоверность 1)  [F89B5833], AccurateRip вернул [713BB06C]
Трек  7  точность не определена (достоверность 1)  [D6705D6A], AccurateRip вернул [8347B07F]
Трек  8  точность не определена (достоверность 1)  [CAA83617], AccurateRip вернул [C5E1101E]
Трек  9  точность не определена (достоверность 1)  [02042651], AccurateRip вернул [D5E03ECD]
Трек 10  точность не определена (достоверность 1)  [44533DF4], AccurateRip вернул [0C28513E]
Трек 11  точность не определена (достоверность 1)  [21C70E4B], AccurateRip вернул [A220DB8F]
Трек 12  точность не определена (достоверность 1)  [10D749C8], AccurateRip вернул [8F06813F]
Ни один трек не прошёл проверки на точность
В вашей базе может быть иной вариант штамповки диска
Конец отчёта

2006 - Тебе, моя последняя любовь

Продолжительность: 00:56:18
Издатель (лейбл): Классик компани
Номер по каталогу: CC CD 13/06
Треклист:
01. Встретились глаза (с М.Круг) [ 02:28 ]
02. Тебе, моя последняя любовь (с М.Круг) [ 03:03 ]
03. Поле зеленое [ 03:26 ]
04. Боль о тебе [ 03:58 ]
05. Моя королева (с М.Круг) [ 03:50 ]
06. Пусть сейчас я плачу [ 03:40 ]
07. Жиган-лимон [ 02:40 ]
08. Приходите в мой дом (с М.Круг) [ 03:44 ]
09. Студентка (М.Круг) [ 03:56 ]
10. Мой друг Хайм (М.Круг) [ 04:17 ]
11. Ну, прощай... (с М.Круг) [ 03:05 ]
12. Сколько лет (цыганская) (с М.Круг) [ 03:43 ]
13. Не бросай мою любовь (с М.Круг) [ 04:55 ]
14. Возвращайся (с М.Круг) [ 03:03 ]
15. Чиколда (М.Круг) [ 02:54 ]
16. Тверь (М.Круг) [ 03:27 ]

Лог создания рипа

Exact Audio Copy V1.0 beta 1 from 15. November 2010
Отчёт EAC об извлечении, выполненном 22. февраля 2012, 23:06
Ирина Круг / Тебе, моя последняя любовь
Дисковод: ASUS    DRW-24B3ST   Adapter: 0  ID: 1
Режим чтения                 : Достоверность
Использование точного потока : Да
Отключение кэша аудио        : Да
Использование указателей C2  : Нет
Коррекция смещения при чтении                     : 6
Способность читать области Lead-in и Lead-out     : Нет
Заполнение пропущенных сэмплов тишиной            : Да
Удаление блоков с тишиной в начале и конце        : Нет
При вычислениях CRC использовались нулевые сэмплы : Да
Интерфейс                                         : Установленный внешний ASPI-интерфейс
Выходной формат          : Пользовательский кодировщик
Выбранный битрейт        : 768 kBit/s
Качество                 : Высокий
Добавление ID3-тэга      : Нет
Утилита сжатия           : C:\Program Files\Exact Audio Copy\Flac\flac.exe
Дополнительные параметры :  -T "DATE=%y" -T "GENRE=%m" -8 -V %s
TOC извлечённого CD
     Трек |   Старт  | Длительность | Начальный сектор | Конечный сектор
    ---------------------------------------------------------------------
       1  |  0:00.00 |    2:28.57   |           0      |      11156
       2  |  2:28.57 |    3:03.25   |       11157      |      24906
       3  |  5:32.07 |    3:26.18   |       24907      |      40374
       4  |  8:58.25 |    3:58.60   |       40375      |      58284
       5  | 12:57.10 |    3:50.60   |       58285      |      75594
       6  | 16:47.70 |    3:40.41   |       75595      |      92135
       7  | 20:28.36 |    2:40.56   |       92136      |     104191
       8  | 23:09.17 |    3:44.57   |      104192      |     121048
       9  | 26:53.74 |    3:56.52   |      121049      |     138800
      10  | 30:50.51 |    4:17.36   |      138801      |     158111
      11  | 35:08.12 |    3:05.73   |      158112      |     172059
      12  | 38:14.10 |    3:43.45   |      172060      |     188829
      13  | 41:57.55 |    4:55.25   |      188830      |     210979
      14  | 46:53.05 |    3:03.42   |      210980      |     224746
      15  | 49:56.47 |    2:54.47   |      224747      |     237843
      16  | 52:51.19 |    3:27.13   |      237844      |     253381
Характеристики диапазона извлечения и сообщения об ошибках
Выбранный диапазон
     Имя файла D:\Winamp\Ирина Круг - Тебе, моя последняя любовь.wav
     Пиковый уровень 96.6 %
0.3 X
     Качество диапазона 99.9 %
     CRC теста 8A0AE064
     CRC копии 8A0AE064
     Копирование... OK
Ошибок не произошло
AccurateRip: сводка
Трек  1  точность не определена (достоверность 1)  [183A7147], AccurateRip вернул [B496080C]
Трек  2  точность не определена (достоверность 1)  [06AA506B], AccurateRip вернул [336FD92C]
Трек  3  точность не определена (достоверность 1)  [7A59AA31], AccurateRip вернул [D24032D6]
Трек  4  точность не определена (достоверность 1)  [8C622721], AccurateRip вернул [92F5A58C]
Трек  5  точность не определена (достоверность 1)  [CDFB5F7C], AccurateRip вернул [A23B664A]
Трек  6  точность не определена (достоверность 1)  [B2F55E05], AccurateRip вернул [1AA78733]
Трек  7  точность не определена (достоверность 1)  [530A882B], AccurateRip вернул [FA3B18E8]
Трек  8  точность не определена (достоверность 1)  [2CF85F17], AccurateRip вернул [BFD4F9EF]
Трек  9  точность не определена (достоверность 1)  [A8F35A98], AccurateRip вернул [8EA6FF12]
Трек 10  точность не определена (достоверность 1)  [5950A45A], AccurateRip вернул [1BA1E189]
Трек 11  точность не определена (достоверность 1)  [9CE01C42], AccurateRip вернул [8A5CB148]
Трек 12  точность не определена (достоверность 1)  [C64566EA], AccurateRip вернул [8B06DBBC]
Трек 13  точность не определена (достоверность 1)  [C6FEC864], AccurateRip вернул [552B8653]
Трек 14  точность не определена (достоверность 1)  [335C002C], AccurateRip вернул [662D3A10]
Трек 15  точность не определена (достоверность 1)  [272E39DD], AccurateRip вернул [85BEA397]
Трек 16  точность не определена (достоверность 1)  [33237BBC], AccurateRip вернул [A6587191]
Ни один трек не прошёл проверки на точность
В вашей базе может быть иной вариант штамповки диска
Конец отчёта

2008 - Красавчик

Продолжительность: 00:44:08
Издатель (лейбл): Классик компани
Номер по каталогу: CC CD 06/08
Треклист:
01. Юбочка [03:38]
02. Вернись из августа ко мне [03:33]
03. Я все уже пережила [04:49]
04. Как прежде [04:12]
05. Старая песня [03:47]
06. После дождя [03:58]
07. Я тебя люблю [04:22]
08. Здравствуй [03:28]
09. Еще одна весна к концу подходит [02:20]
10. Красавчик [02:44]
11. Милая зайка моя [03:13]
12. Прощальный взгляд [03:59]

Лог создания рипа

Exact Audio Copy V1.0 beta 1 from 15. November 2010
Отчёт EAC об извлечении, выполненном 2. мая 2012, 14:39
Ирина Круг / Красавчик
Дисковод: ASUS    DRW-24B3ST   Adapter: 0  ID: 1
Режим чтения                 : Достоверность
Использование точного потока : Да
Отключение кэша аудио        : Да
Использование указателей C2  : Нет
Коррекция смещения при чтении                     : 6
Способность читать области Lead-in и Lead-out     : Нет
Заполнение пропущенных сэмплов тишиной            : Да
Удаление блоков с тишиной в начале и конце        : Нет
При вычислениях CRC использовались нулевые сэмплы : Да
Интерфейс                                         : Встроенный Win32-интерфейс для Win NT/2000
Выходной формат          : Пользовательский кодировщик
Выбранный битрейт        : 896 kBit/s
Качество                 : Высокий
Добавление ID3-тэга      : Нет
Утилита сжатия           : C:\Program Files\FLAC\flac.exe
Дополнительные параметры : -T "DATE=%y" -T "GENRE=%m" -8 -V %s
TOC извлечённого CD
     Трек |   Старт  | Длительность | Начальный сектор | Конечный сектор
    ---------------------------------------------------------------------
       1  |  0:00.00 |    3:40.07   |           0      |      16506
       2  |  3:40.07 |    3:35.18   |       16507      |      32649
       3  |  7:15.25 |    4:51.04   |       32650      |      54478
       4  | 12:06.29 |    4:14.28   |       54479      |      73556
       5  | 16:20.57 |    3:49.30   |       73557      |      90761
       6  | 20:10.12 |    4:00.33   |       90762      |     108794
       7  | 24:10.45 |    4:24.40   |      108795      |     128634
       8  | 28:35.10 |    3:30.01   |      128635      |     144385
       9  | 32:05.11 |    2:22.56   |      144386      |     155091
      10  | 34:27.67 |    2:45.60   |      155092      |     167526
      11  | 37:13.52 |    3:15.41   |      167527      |     182192
      12  | 40:29.18 |    3:59.00   |      182193      |     200117
Характеристики диапазона извлечения и сообщения об ошибках
Выбранный диапазон
     Имя файла D:\trofim\Ирина Круг - Красавчик.wav
     Пиковый уровень 96.7 %
0.7 X
     Качество диапазона 100.0 %
     CRC теста 6ACC59DA
     CRC копии 6ACC59DA
     Копирование... OK
Ошибок не произошло
AccurateRip: сводка
Трек  1  точность не определена (достоверность 1)  [D4B55A71], AccurateRip вернул [35CCCA64]
Трек  2  точность не определена (достоверность 1)  [D05E2372], AccurateRip вернул [5FA7ECD4]
Трек  3  точность не определена (достоверность 1)  [E463AB87], AccurateRip вернул [96C548A4]
Трек  4  точность не определена (достоверность 1)  [F5BA32D1], AccurateRip вернул [F4D17396]
Трек  5  точность не определена (достоверность 1)  [B2A20020], AccurateRip вернул [14057662]
Трек  6  точность не определена (достоверность 1)  [9781E6C3], AccurateRip вернул [243E1F53]
Трек  7  нет в базе данных
Трек  8  нет в базе данных
Трек  9  нет в базе данных
Трек 10  нет в базе данных
Трек 11  нет в базе данных
Трек 12  нет в базе данных
6 трек(и) не удалось проверить на точность
6 трек(и) не содержатся в базе AccurateRip
Ни один трек не прошёл проверки на точность
В вашей базе может быть иной вариант штамповки диска
Конец отчёта

2009 - Остров любви

Продолжительность: 00:43:45
Издатель (лейбл): Классик компани
Номер по каталогу: CC CD 15/09
Треклист:
01. Ива [03:29]
02. Пой гитара [02:57]
03. В плену твоих рук [03:44]
04. Верю [03:05]
05. Где ты [04:10]
06. Мальчик мой [03:51]
07. Остров любви [03:23]
08. Колыбельная сыну [03:14]
09. Напиши мне [03:42]
10. Крылья [03:12]
11. Где-то за морем [03:50]
12. Зеленая шестерка [05:00]

Лог создания рипа

Exact Audio Copy V1.0 beta 1 from 15. November 2010
Отчёт EAC об извлечении, выполненном 3. мая 2012, 21:20
Ирина Круг / Остров любви
Дисковод: ASUS    DRW-24B3ST   Adapter: 0  ID: 1
Режим чтения                 : Достоверность
Использование точного потока : Да
Отключение кэша аудио        : Да
Использование указателей C2  : Нет
Коррекция смещения при чтении                     : 6
Способность читать области Lead-in и Lead-out     : Нет
Заполнение пропущенных сэмплов тишиной            : Да
Удаление блоков с тишиной в начале и конце        : Нет
При вычислениях CRC использовались нулевые сэмплы : Да
Интерфейс                                         : Встроенный Win32-интерфейс для Win NT/2000
Выходной формат          : Пользовательский кодировщик
Выбранный битрейт        : 896 kBit/s
Качество                 : Высокий
Добавление ID3-тэга      : Нет
Утилита сжатия           : C:\Program Files\FLAC\flac.exe
Дополнительные параметры : -T "DATE=%y" -T "GENRE=%m" -8 -V %s
TOC извлечённого CD
     Трек |   Старт  | Длительность | Начальный сектор | Конечный сектор
    ---------------------------------------------------------------------
       1  |  0:00.00 |    3:31.49   |           0      |      15873
       2  |  3:31.49 |    2:59.26   |       15874      |      29324
       3  |  6:31.00 |    3:46.74   |       29325      |      46348
       4  | 10:17.74 |    3:07.73   |       46349      |      60446
       5  | 13:25.72 |    4:12.73   |       60447      |      79419
       6  | 17:38.70 |    3:53.68   |       79420      |      96962
       7  | 21:32.63 |    3:25.07   |       96963      |     112344
       8  | 24:57.70 |    3:16.72   |      112345      |     127116
       9  | 28:14.67 |    3:44.68   |      127117      |     143984
      10  | 31:59.60 |    3:14.68   |      143985      |     158602
      11  | 35:14.53 |    3:52.00   |      158603      |     176002
      12  | 39:06.53 |    5:00.52   |      176003      |     198554
Характеристики диапазона извлечения и сообщения об ошибках
Выбранный диапазон
     Имя файла D:\trofim\Ирина Круг - Остров любви.wav
     Пиковый уровень 99.7 %
0.9 X
     Качество диапазона 100.0 %
     CRC теста 7B9612D7
     CRC копии 7B9612D7
     Копирование... OK
Ошибок не произошло
AccurateRip: сводка
Трек  1  точность не определена (достоверность 1)  [DF4BD5D5], AccurateRip вернул [CD90B8CB]
Трек  2  точность не определена (достоверность 1)  [BB187E8A], AccurateRip вернул [FC579DBA]
Трек  3  точность не определена (достоверность 1)  [A83B1427], AccurateRip вернул [B81DBDBF]
Трек  4  точность не определена (достоверность 1)  [F9B9EFA4], AccurateRip вернул [AFDDE475]
Трек  5  точность не определена (достоверность 1)  [1117B3BC], AccurateRip вернул [312D6895]
Трек  6  точность не определена (достоверность 1)  [9D902608], AccurateRip вернул [7E4C6315]
Трек  7  точность не определена (достоверность 1)  [8FB0272D], AccurateRip вернул [98EFB4AF]
Трек  8  точность не определена (достоверность 1)  [EC958F89], AccurateRip вернул [8CB54BE7]
Трек  9  точность не определена (достоверность 1)  [BE1A4382], AccurateRip вернул [E95BF1AC]
Трек 10  точность не определена (достоверность 1)  [6993956C], AccurateRip вернул [803893F2]
Трек 11  точность не определена (достоверность 1)  [E3D75CFA], AccurateRip вернул [9E44E84A]
Трек 12  точность не определена (достоверность 1)  [104C871A], AccurateRip вернул [BCE68A63]
Ни один трек не прошёл проверки на точность
В вашей базе может быть иной вариант штамповки диска
Конец отчёта

2010 - Я прочитаю в глазах твоих

Продолжительность: 00:44:31
Издатель (лейбл): Классик компани
Номер по каталогу: CC CD 06/10
Треклист:
01. Я прочитаю в глазах твоих [ 03:33 ]
02. Без тебя [ 03:23 ]
03. Неужели любовь обман [ 04:03 ]
04. Приснись же мне [ 04:54 ]
05. Два одиночества [ 04:07 ]
06. Коснусь тебя [ 03:49 ]
07. Сердцу не дай остыть [ 04:06 ]
08. Две странички [ 03:45 ]
09. Я хочу быть с тобой [ 04:36 ]
10. Перелетная птица [ 04:06 ]
11. Букет белых роз (с В.Королевым) бонус трек [ 04:03 ]

Лог создания рипа

Exact Audio Copy V1.0 beta 1 from 15. November 2010
Отчёт EAC об извлечении, выполненном 17. февраля 2012, 20:59
Ирина Круг / Я прочитаю в глазах твоих
Дисковод: ASUS    DRW-24B3ST   Adapter: 0  ID: 1
Режим чтения                 : Достоверность
Использование точного потока : Да
Отключение кэша аудио        : Да
Использование указателей C2  : Нет
Коррекция смещения при чтении                     : 6
Способность читать области Lead-in и Lead-out     : Нет
Заполнение пропущенных сэмплов тишиной            : Да
Удаление блоков с тишиной в начале и конце        : Нет
При вычислениях CRC использовались нулевые сэмплы : Да
Интерфейс                                         : Установленный внешний ASPI-интерфейс
Выходной формат          : Пользовательский кодировщик
Выбранный битрейт        : 768 kBit/s
Качество                 : Высокий
Добавление ID3-тэга      : Нет
Утилита сжатия           : C:\Program Files\Exact Audio Copy\Flac\flac.exe
Дополнительные параметры :  -T "DATE=%y" -T "GENRE=%m" -8 -V %s
TOC извлечённого CD
     Трек |   Старт  | Длительность | Начальный сектор | Конечный сектор
    ---------------------------------------------------------------------
       1  |  0:00.00 |    3:33.55   |           0      |      16029
       2  |  3:33.55 |    3:23.50   |       16030      |      31304
       3  |  6:57.30 |    4:03.66   |       31305      |      49595
       4  | 11:01.21 |    4:54.63   |       49596      |      71708
       5  | 15:56.09 |    4:07.62   |       71709      |      90295
       6  | 20:03.71 |    3:49.31   |       90296      |     107501
       7  | 23:53.27 |    4:06.21   |      107502      |     125972
       8  | 27:59.48 |    3:45.34   |      125973      |     142881
       9  | 31:45.07 |    4:36.09   |      142882      |     163590
      10  | 36:21.16 |    4:06.73   |      163591      |     182113
      11  | 40:28.14 |    4:03.02   |      182114      |     200340
Характеристики диапазона извлечения и сообщения об ошибках
Выбранный диапазон
     Имя файла D:\Winamp\Ирина Круг - Я прочитаю в глазах твоих.wav
     Пиковый уровень 97.7 %
0.5 X
     Качество диапазона 100.0 %
     CRC теста B1001CE6
     CRC копии B1001CE6
     Копирование... OK
Ошибок не произошло
AccurateRip: сводка
Трек  1  нет в базе данных
Трек  2  нет в базе данных
Трек  3  нет в базе данных
Трек  4  нет в базе данных
Трек  5  нет в базе данных
Трек  6  нет в базе данных
Трек  7  нет в базе данных
Трек  8  нет в базе данных
Трек  9  нет в базе данных
Трек 10  нет в базе данных
Трек 11  нет в базе данных
Ни одного трека нет в базе AccurateRip
Конец отчёта

2012 - Любить не страшно

Продолжительность: 00:40:34
Издатель (лейбл): Classic Company
Номер по каталогу: CC CD 28/12
Треклист:
01. Метель [03:00]
02. То, что было [03:13]
03. Любить не страшно [03:46]
04. Наша позабытая весна [03:05]
05. Перелётная птица (новая версия) [03:51]
06. Дом на горе [03:27]
07. Я лучше промолчу [03:25]
08. Сказочка [04:02]
09. И пусть все знают [03:48]
10. Не жалею [05:23]
11. За то, что ты есть... [03:30]

Лог создания рипа

Exact Audio Copy V1.0 beta 1 from 15. November 2010
Отчёт EAC об извлечении, выполненном 23. апреля 2012, 20:21
Ирина Круг / Любить не страшно
Дисковод: ATAPI   iHAP122   W   Adapter: 0  ID: 0
Режим чтения                 : Достоверность
Использование точного потока : Да
Отключение кэша аудио        : Да
Использование указателей C2  : Нет
Коррекция смещения при чтении                     : 6
Способность читать области Lead-in и Lead-out     : Нет
Заполнение пропущенных сэмплов тишиной            : Да
Удаление блоков с тишиной в начале и конце        : Нет
При вычислениях CRC использовались нулевые сэмплы : Да
Интерфейс                                         : Установленный внешний ASPI-интерфейс
Выходной формат : Внутренние WAV-операции
Формат сэмплов  : 44.100 Гц; 16 бит; стерео
TOC извлечённого CD
     Трек |   Старт  | Длительность | Начальный сектор | Конечный сектор
    ---------------------------------------------------------------------
       1  |  0:00.00 |    3:02.36   |           0      |      13685
       2  |  3:02.36 |    3:15.23   |       13686      |      28333
       3  |  6:17.59 |    3:48.02   |       28334      |      45435
       4  | 10:05.61 |    3:07.37   |       45436      |      59497
       5  | 13:13.23 |    3:53.50   |       59498      |      77022
       6  | 17:06.73 |    3:29.19   |       77023      |      92716
       7  | 20:36.17 |    3:27.26   |       92717      |     108267
       8  | 24:03.43 |    4:04.05   |      108268      |     126572
       9  | 28:07.48 |    3:50.55   |      126573      |     143877
      10  | 31:58.28 |    5:25.23   |      143878      |     168275
      11  | 37:23.51 |    3:30.50   |      168276      |     184075
Характеристики диапазона извлечения и сообщения об ошибках
Выбранный диапазон
     Имя файла C:\Documents and Settings\Admin\Рабочий стол\Круг Ирина - Любить не страшно (2012г.)\Ирина Круг - Любить не страшно.wav
     Пиковый уровень 98.8 %
0.2 X
     Качество диапазона 100.0 %
     CRC теста 25BB652E
     CRC копии 25BB652E
     Копирование... OK
Ошибок не произошло
AccurateRip: сводка
Трек  1  нет в базе данных
Трек  2  нет в базе данных
Трек  3  нет в базе данных
Трек  4  нет в базе данных
Трек  5  нет в базе данных
Трек  6  нет в базе данных
Трек  7  нет в базе данных
Трек  8  нет в базе данных
Трек  9  нет в базе данных
Трек 10  нет в базе данных
Трек 11  нет в базе данных
Ни одного трека нет в базе AccurateRip
Конец отчёта

2013 - Шанель

Продолжительность: 00:39:49
Издатель (лейбл): Маркон
Номер по каталогу: UMG CD 13-218
Треклист:
01. А он успел [03:38]
02. Ключики [03:20]
03. Шанель [03:25]
04. Ты моя вселенная [03:52]
05. Я его дождусь [03:59]
06. Прости меня [03:53]
07. На чужой беде [03:36]
08. Цветы без повода [03:36]
09. Снег [03:11]
10. День, в котором нет тебя [03:35]
11. Молчи, печаль [03:42]

Лог создания рипа

Exact Audio Copy V1.0 beta 1 from 15. November 2010
Отчёт EAC об извлечении, выполненном 6. ноября 2013, 20:52
Ирина Круг / Шанель
Дисковод: ATAPI   iHAP122   W   Adapter: 0  ID: 0
Режим чтения                 : Достоверность
Использование точного потока : Да
Отключение кэша аудио        : Да
Использование указателей C2  : Нет
Коррекция смещения при чтении                     : 6
Способность читать области Lead-in и Lead-out     : Нет
Заполнение пропущенных сэмплов тишиной            : Да
Удаление блоков с тишиной в начале и конце        : Нет
При вычислениях CRC использовались нулевые сэмплы : Да
Интерфейс                                         : Установленный внешний ASPI-интерфейс
Выходной формат : Внутренние WAV-операции
Формат сэмплов  : 44.100 Гц; 16 бит; стерео
TOC извлечённого CD
     Трек |   Старт  | Длительность | Начальный сектор | Конечный сектор
    ---------------------------------------------------------------------
       1  |  0:00.00 |    3:38.00   |           0      |      16349
       2  |  3:38.00 |    3:20.00   |       16350      |      31349
       3  |  6:58.00 |    3:25.18   |       31350      |      46742
       4  | 10:23.18 |    3:52.00   |       46743      |      64142
       5  | 14:15.18 |    3:59.00   |       64143      |      82067
       6  | 18:14.18 |    3:53.00   |       82068      |      99542
       7  | 22:07.18 |    3:36.38   |       99543      |     115780
       8  | 25:43.56 |    3:36.00   |      115781      |     131980
       9  | 29:19.56 |    3:11.26   |      131981      |     146331
      10  | 32:31.07 |    3:35.18   |      146332      |     162474
      11  | 36:06.25 |    3:42.54   |      162475      |     179178
Характеристики диапазона извлечения и сообщения об ошибках
Выбранный диапазон
     Имя файла C:\Documents and Settings\Admin\Рабочий стол\2013 - Круг Ирина - Шанель\Ирина Круг - Шанель.wav
     Пиковый уровень 98.8 %
0.2 X
     Качество диапазона 100.0 %
     CRC теста F5AC00DE
     CRC копии F5AC00DE
     Копирование... OK
Ошибок не произошло
AccurateRip: сводка
Трек  1  нет в базе данных
Трек  2  нет в базе данных
Трек  3  нет в базе данных
Трек  4  нет в базе данных
Трек  5  нет в базе данных
Трек  6  нет в базе данных
Трек  7  нет в базе данных
Трек  8  нет в базе данных
Трек  9  нет в базе данных
Трек 10  нет в базе данных
Трек 11  нет в базе данных
Ни одного трека нет в базе AccurateRip
Конец отчёта

2014 - Белые цветы

Продолжительность: 00:37:59
Издатель (лейбл): Artur Music
Номер по каталогу: CD 567
Треклист:
01. Белые цветы (Ирина Круг и Кира Дымов) 04:03
02. Роман 03:15
03. Заходи ко мне во сне (Ирина Круг и Алексей Брянцев) 03:56
04. Назови меня любимой 03:34
05. Качает небо золотые купола (Ирина Круг и Виктор Королёв) 04:30
06. Ты просто дождь 03:48
07. Как будто мы с тобой (Ирина Круг и Алексей Брянцев) 03:29
08. Птица 03:21
09. Любимый взгляд (Ирина Круг и Алексей Брянцев) 03:47
10. Серебряные струны (Ирина Круг, Вика Цыганова и Леонид Телешев) 04:11

Лог создания рипа

Exact Audio Copy V1.0 beta 1 from 15. November 2010
Отчёт EAC об извлечении, выполненном 3. декабря 2014, 18:00
Ирина Круг / Белые цветы
Дисковод: ATAPI   iHAP122   W   Adapter: 0  ID: 0
Режим чтения                 : Достоверность
Использование точного потока : Да
Отключение кэша аудио        : Да
Использование указателей C2  : Нет
Коррекция смещения при чтении                     : 6
Способность читать области Lead-in и Lead-out     : Нет
Заполнение пропущенных сэмплов тишиной            : Да
Удаление блоков с тишиной в начале и конце        : Нет
При вычислениях CRC использовались нулевые сэмплы : Да
Интерфейс                                         : Установленный внешний ASPI-интерфейс
Выходной формат : Внутренние WAV-операции
Формат сэмплов  : 44.100 Гц; 16 бит; стерео
TOC извлечённого CD
     Трек |   Старт  | Длительность | Начальный сектор | Конечный сектор
    ---------------------------------------------------------------------
       1  |  0:00.00 |    4:03.17   |           0      |      18241
       2  |  4:03.17 |    3:15.71   |       18242      |      32937
       3  |  7:19.13 |    3:56.30   |       32938      |      50667
       4  | 11:15.43 |    3:34.56   |       50668      |      66773
       5  | 14:50.24 |    4:30.29   |       66774      |      87052
       6  | 19:20.53 |    3:48.18   |       87053      |     104170
       7  | 23:08.71 |    3:29.73   |      104171      |     119918
       8  | 26:38.69 |    3:21.37   |      119919      |     135030
       9  | 30:00.31 |    3:47.03   |      135031      |     152058
      10  | 33:47.34 |    4:11.65   |      152059      |     170948
Характеристики диапазона извлечения и сообщения об ошибках
Выбранный диапазон
     Имя файла C:\Documents and Settings\Admin\Рабочий стол\2014 - Ирина Круг - Белые цветы\Ирина Круг - Белые цветы.wav
     Пиковый уровень 99.9 %
0.5 X
     Качество диапазона 99.9 %
     CRC теста 6C1F102D
     CRC копии 6C1F102D
     Копирование... OK
Ошибок не произошло
AccurateRip: сводка
Трек  1  нет в базе данных
Трек  2  нет в базе данных
Трек  3  нет в базе данных
Трек  4  нет в базе данных
Трек  5  нет в базе данных
Трек  6  нет в базе данных
Трек  7  нет в базе данных
Трек  8  нет в базе данных
Трек  9  нет в базе данных
Трек 10  нет в базе данных
Ни одного трека нет в базе AccurateRip
Конец отчёта

2015 - Матёрая любовь

Продолжительность: 00:45:10
Издатель (лейбл): Юнайтед Мьюзик Групп
Номер по каталогу: UMG15CD - 4812
Треклист:
01. Матёрая любовь 03:38
02. Два одиночества 04:09
03. Может любовь, может каприз 04:25
04. От встречи до прощания 03:53
05. В плену твоих рук 03:48
06. Не надо слов 03:30
07. Снежная королева 03:29
08. Сон /Наша позабытая весна/ 03:08
09. Коснусь тебя 03:51
10. Осеннее кафе 03:08
11. После дождя 04:01
12. Сердцу не дай остыть 04:06

Лог создания рипа

Exact Audio Copy V1.0 beta 1 from 15. November 2010
Отчёт EAC об извлечении, выполненном 19. апреля 2015, 2:15
Ирина Круг / Матёрая любовь
Дисковод: ATAPI   iHAP122   W   Adapter: 0  ID: 0
Режим чтения                 : Достоверность
Использование точного потока : Да
Отключение кэша аудио        : Да
Использование указателей C2  : Нет
Коррекция смещения при чтении                     : 6
Способность читать области Lead-in и Lead-out     : Нет
Заполнение пропущенных сэмплов тишиной            : Да
Удаление блоков с тишиной в начале и конце        : Нет
При вычислениях CRC использовались нулевые сэмплы : Да
Интерфейс                                         : Установленный внешний ASPI-интерфейс
Выходной формат : Внутренние WAV-операции
Формат сэмплов  : 44.100 Гц; 16 бит; стерео
TOC извлечённого CD
     Трек |   Старт  | Длительность | Начальный сектор | Конечный сектор
    ---------------------------------------------------------------------
       1  |  0:00.00 |    3:38.00   |           0      |      16349
       2  |  3:38.00 |    4:09.13   |       16350      |      35037
       3  |  7:47.13 |    4:26.00   |       35038      |      54987
       4  | 12:13.13 |    3:53.08   |       54988      |      72470
       5  | 16:06.21 |    3:48.33   |       72471      |      89603
       6  | 19:54.54 |    3:30.00   |       89604      |     105353
       7  | 23:24.54 |    3:29.11   |      105354      |     121039
       8  | 26:53.65 |    3:08.57   |      121040      |     135196
       9  | 30:02.47 |    3:51.31   |      135197      |     152552
      10  | 33:54.03 |    3:08.69   |      152553      |     166721
      11  | 37:02.72 |    4:01.38   |      166722      |     184834
      12  | 41:04.35 |    4:06.21   |      184835      |     203305
Характеристики диапазона извлечения и сообщения об ошибках
Выбранный диапазон
     Имя файла C:\Documents and Settings\Admin\Рабочий стол\2015 - Ирина Круг - Матёрая любовь\Ирина Круг - Матёрая любовь.wav
     Пиковый уровень 99.6 %
0.5 X
     Качество диапазона 100.0 %
     CRC теста 3A490434
     CRC копии 3A490434
     Копирование... OK
Ошибок не произошло
AccurateRip: сводка
Трек  1  нет в базе данных
Трек  2  нет в базе данных
Трек  3  нет в базе данных
Трек  4  нет в базе данных
Трек  5  нет в базе данных
Трек  6  нет в базе данных
Трек  7  нет в базе данных
Трек  8  нет в базе данных
Трек  9  нет в базе данных
Трек 10  нет в базе данных
Трек 11  нет в базе данных
Трек 12  нет в базе данных
Ни одного трека нет в базе AccurateRip
Конец отчёта

Сборники и совместные альбомы

2007 - Привет, малыш! (с Алексеем Брянцевым)

Продолжительность: 00:46:19
Издатель (лейбл): Artur Music
Номер по каталогу: CD 397
Треклист:
01. Привет, малыш! [03:14]
02. Твои глаза-магнит [02:37]
03. Как будто мы с тобой [03:29]
04. Ты просто дождь [03:47]
05. Вернется к нам любовь [04:07]
06. Последнее свидание [03:46]
07. На нуле [03:20]
08. Назови меня любимой [03:33]
09. Ты [03:39]
10. Любимый взгляд [03:45]
11. Птица [03:20]
12. Два сердца [03:39]
13. Когда зима в душе пройдет [03:53]

Лог создания рипа

Exact Audio Copy V1.0 beta 1 from 15. November 2010
Отчёт EAC об извлечении, выполненном 4. мая 2012, 20:14
И. Круг и А. Брянцев / Привет, малыш!
Дисковод: ASUS    DRW-24B3ST   Adapter: 0  ID: 1
Режим чтения                 : Достоверность
Использование точного потока : Да
Отключение кэша аудио        : Да
Использование указателей C2  : Нет
Коррекция смещения при чтении                     : 6
Способность читать области Lead-in и Lead-out     : Нет
Заполнение пропущенных сэмплов тишиной            : Да
Удаление блоков с тишиной в начале и конце        : Нет
При вычислениях CRC использовались нулевые сэмплы : Да
Интерфейс                                         : Встроенный Win32-интерфейс для Win NT/2000
Выходной формат          : Пользовательский кодировщик
Выбранный битрейт        : 896 kBit/s
Качество                 : Высокий
Добавление ID3-тэга      : Нет
Утилита сжатия           : C:\Program Files\FLAC\flac.exe
Дополнительные параметры : -T "DATE=%y" -T "GENRE=%m" -8 -V %s
TOC извлечённого CD
     Трек |   Старт  | Длительность | Начальный сектор | Конечный сектор
    ---------------------------------------------------------------------
       1  |  0:00.00 |    3:16.69   |           0      |      14768
       2  |  3:16.69 |    2:39.68   |       14769      |      26761
       3  |  5:56.62 |    3:31.37   |       26762      |      42623
       4  |  9:28.24 |    3:49.59   |       42624      |      59857
       5  | 13:18.08 |    4:09.49   |       59858      |      78581
       6  | 17:27.57 |    3:48.34   |       78582      |      95715
       7  | 21:16.16 |    3:22.72   |       95716      |     110937
       8  | 24:39.13 |    3:35.73   |      110938      |     127135
       9  | 28:15.11 |    3:41.61   |      127136      |     143771
      10  | 31:56.72 |    3:47.72   |      143772      |     160868
      11  | 35:44.69 |    3:22.69   |      160869      |     176087
      12  | 39:07.63 |    3:41.27   |      176088      |     192689
      13  | 42:49.15 |    3:53.66   |      192690      |     210230
Характеристики диапазона извлечения и сообщения об ошибках
Выбранный диапазон
     Имя файла D:\trofim\И. Круг и А. Брянцев - Привет, малыш!.wav
     Пиковый уровень 98.8 %
0.6 X
     Качество диапазона 100.0 %
     CRC теста 6AACF677
     CRC копии 6AACF677
     Копирование... OK
Ошибок не произошло
AccurateRip: сводка
Трек  1  нет в базе данных
Трек  2  нет в базе данных
Трек  3  нет в базе данных
Трек  4  нет в базе данных
Трек  5  нет в базе данных
Трек  6  нет в базе данных
Трек  7  нет в базе данных
Трек  8  нет в базе данных
Трек  9  нет в базе данных
Трек 10  нет в базе данных
Трек 11  нет в базе данных
Трек 12  нет в базе данных
Трек 13  нет в базе данных
Ни одного трека нет в базе AccurateRip
Конец отчёта

2010 - Если бы не ты... (с Алексеем Брянцевым)

Продолжительность: 00:40:49
Издатель (лейбл): Artur Music
Номер по каталогу: CD 500
Треклист:
01. Только ты [03:12]
02. Заходи ко мне во сне [03:57]
03. Роман [03:17]
04. Я все отдам за твою любовь [03:38]
05. Просто ты одна [04:16]
06. Мне не хватает твоих глаз [04:05]
07. Если бы не ты [03:26]
08. День рождения [03:15]
09. В сердце твоем [03:38]
10. Я ждал тебя [03:38]
11. Я буду помнить (Малыш, привет) [04:22]

Лог создания рипа

Exact Audio Copy V1.0 beta 1 from 15. November 2010
Отчёт EAC об извлечении, выполненном 4. мая 2012, 20:47
И.Круг и А.Брянцев / Если бы не ты...
Дисковод: ASUS    DRW-24B3ST   Adapter: 0  ID: 1
Режим чтения                 : Достоверность
Использование точного потока : Да
Отключение кэша аудио        : Да
Использование указателей C2  : Нет
Коррекция смещения при чтении                     : 6
Способность читать области Lead-in и Lead-out     : Нет
Заполнение пропущенных сэмплов тишиной            : Да
Удаление блоков с тишиной в начале и конце        : Нет
При вычислениях CRC использовались нулевые сэмплы : Да
Интерфейс                                         : Встроенный Win32-интерфейс для Win NT/2000
Выходной формат          : Пользовательский кодировщик
Выбранный битрейт        : 896 kBit/s
Качество                 : Высокий
Добавление ID3-тэга      : Нет
Утилита сжатия           : C:\Program Files\FLAC\flac.exe
Дополнительные параметры : -T "DATE=%y" -T "GENRE=%m" -8 -V %s
TOC извлечённого CD
     Трек |   Старт  | Длительность | Начальный сектор | Конечный сектор
    ---------------------------------------------------------------------
       1  |  0:00.00 |    3:14.16   |           0      |      14565
       2  |  3:14.16 |    3:59.50   |       14566      |      32540
       3  |  7:13.66 |    3:19.56   |       32541      |      47521
       4  | 10:33.47 |    3:40.12   |       47522      |      64033
       5  | 14:13.59 |    4:18.23   |       64034      |      83406
       6  | 18:32.07 |    4:07.64   |       83407      |     101995
       7  | 22:39.71 |    3:28.18   |      101996      |     117613
       8  | 26:08.14 |    3:17.39   |      117614      |     132427
       9  | 29:25.53 |    3:40.41   |      132428      |     148968
      10  | 33:06.19 |    3:40.36   |      148969      |     165504
      11  | 36:46.55 |    4:22.46   |      165505      |     185200
Характеристики диапазона извлечения и сообщения об ошибках
Выбранный диапазон
     Имя файла D:\trofim\И.Круг и А.Брянцев - Если бы не ты....wav
     Пиковый уровень 65.0 %
0.8 X
     Качество диапазона 100.0 %
     CRC теста 749C0C49
     CRC копии 749C0C49
     Копирование... OK
Ошибок не произошло
AccurateRip: сводка
Трек  1  точность не определена (достоверность 1)  [A55D5454], AccurateRip вернул [4CD01608]
Трек  2  точность не определена (достоверность 1)  [E823AE16], AccurateRip вернул [E4BC4B78]
Трек  3  точность не определена (достоверность 1)  [1B338320], AccurateRip вернул [6688BA06]
Трек  4  точность не определена (достоверность 1)  [D94EBDDA], AccurateRip вернул [2D4E987A]
Трек  5  точность не определена (достоверность 1)  [DDD7416A], AccurateRip вернул [BDDF614C]
Трек  6  точность не определена (достоверность 1)  [C1D6A3C1], AccurateRip вернул [7A4E9F1F]
Трек  7  точность не определена (достоверность 1)  [ADA344B1], AccurateRip вернул [58CEEEDD]
Трек  8  точность не определена (достоверность 1)  [7C25F26D], AccurateRip вернул [D1DFF679]
Трек  9  точность не определена (достоверность 1)  [180543A6], AccurateRip вернул [EBCC9C1C]
Трек 10  точность не определена (достоверность 1)  [125EA874], AccurateRip вернул [2BFE2058]
Трек 11  точность не определена (достоверность 1)  [4AD17A86], AccurateRip вернул [F2D7D006]
Ни один трек не прошёл проверки на точность
В вашей базе может быть иной вариант штамповки диска
Конец отчёта

2011 - История любви (с Михаилом Кругом)

Продолжительность: 01:00:15
Издатель (лейбл): Classic Company
Номер по каталогу: CC CD 17/11
Треклист:
01. Моя королева [03:48]
02. Только для тебя [03:26]
03. Перелётная птица [04:06]
04. Чай с баранками [03:30]
05. Я прочитаю в глазах твоих [03:32]
06. Белый снег [03:25]
07. В плену твоих рук [03:46]
08. Дорога дальняя [03:47]
09. Напиши мне [03:44]
10. Прогулка с месяцем [03:23]
11. Осеннее кафе [03:06]
12. Синее платьице [04:56]
13. Два одиночества [04:06]
14. Не гаснет огонёк [03:37]
15. Вот и всё [04:17]
16. Лебеди [03:38]

Лог создания рипа

Exact Audio Copy V1.0 beta 1 from 15. November 2010
Отчёт EAC об извлечении, выполненном 23. апреля 2011, 16:31
Ирина и Михаил Круг / История любви
Дисковод: _NEC    DV-5800E   Adapter: 0  ID: 1
Режим чтения                 : Достоверность
Использование точного потока : Да
Отключение кэша аудио        : Да
Использование указателей C2  : Нет
Коррекция смещения при чтении                     : 6
Способность читать области Lead-in и Lead-out     : Нет
Заполнение пропущенных сэмплов тишиной            : Да
Удаление блоков с тишиной в начале и конце        : Нет
При вычислениях CRC использовались нулевые сэмплы : Да
Интерфейс                                         : Установленный внешний ASPI-интерфейс
Выходной формат : Внутренние WAV-операции
Формат сэмплов  : 44.100 Гц; 16 бит; стерео
TOC извлечённого CD
     Трек |   Старт  | Длительность | Начальный сектор | Конечный сектор
    ---------------------------------------------------------------------
       1  |  0:00.00 |    3:49.63   |           0      |      17237
       2  |  3:49.63 |    3:27.61   |       17238      |      32823
       3  |  7:17.49 |    4:07.38   |       32824      |      51386
       4  | 11:25.12 |    3:31.56   |       51387      |      67267
       5  | 14:56.68 |    3:33.37   |       67268      |      83279
       6  | 18:30.30 |    3:26.39   |       83280      |      98768
       7  | 21:56.69 |    3:47.21   |       98769      |     115814
       8  | 25:44.15 |    3:48.02   |      115815      |     132916
       9  | 29:32.17 |    3:45.07   |      132917      |     149798
      10  | 33:17.24 |    3:24.55   |      149799      |     165153
      11  | 36:42.04 |    3:07.35   |      165154      |     179213
      12  | 39:49.39 |    4:57.06   |      179214      |     201494
      13  | 44:46.45 |    4:07.16   |      201495      |     220035
      14  | 48:53.61 |    3:38.43   |      220036      |     236428
      15  | 52:32.29 |    4:18.11   |      236429      |     255789
      16  | 56:50.40 |    3:38.41   |      255790      |     272180
Характеристики диапазона извлечения и сообщения об ошибках
Выбранный диапазон
     Имя файла C:\Documents and Settings\Admin\Рабочий стол\Ирина и Михаил Круг - История любви\Ирина и Михаил Круг - История любви.wav
     Пиковый уровень 97.0 %
0.7 X
     Качество диапазона 100.0 %
     CRC теста 147A2DFF
     CRC копии 147A2DFF
     Копирование... OK
Ошибок не произошло
AccurateRip: сводка
Трек  1  нет в базе данных
Трек  2  нет в базе данных
Трек  3  нет в базе данных
Трек  4  нет в базе данных
Трек  5  нет в базе данных
Трек  6  нет в базе данных
Трек  7  нет в базе данных
Трек  8  нет в базе данных
Трек  9  нет в базе данных
Трек 10  нет в базе данных
Трек 11  нет в базе данных
Трек 12  нет в базе данных
Трек 13  нет в базе данных
Трек 14  нет в базе данных
Трек 15  нет в базе данных
Трек 16  нет в базе данных
Ни одного трека нет в базе AccurateRip
Конец отчёта
====  5C38EFABE0085BB54BAE838A269B89518DB998A9391F41AEB8DCCF3B3B8F69D6 ====

2011 - Роман (с Виктором Королевым)

Продолжительность: 00:42:13
Издатель (лейбл): Artur Music
Номер по каталогу: CD 511
Треклист:
01. Ирина Круг - Роман [03:15]
02. Виктор Королев - Любимая [04:23]
03. Ирина Круг и Виктор Королев - Букет из белых роз [04:04]
04. Виктор Королев - Алая роза [03:44]
05. Ирина Круг - Назови меня любимой [03:34]
06. Ирина Круг и Виктор Королев - Золотые купола [04:30]
07. Ирина Круг - Птица [03:21]
08. Виктор Королев - Вишня [03:35]
09. Виктор Королев - Карие глаза [03:49]
10. Ирина Круг - Ты просто дождь [03:48]
11. Виктор Королев - Слова [04:03]

Лог создания рипа

Exact Audio Copy V1.0 beta 1 from 15. November 2010
Отчёт EAC об извлечении, выполненном 4. мая 2011, 19:16
Ирина Круг и Виктор Королев / Роман
Дисковод: ASUS    DRW-24B3ST   Adapter: 0  ID: 1
Режим чтения                 : Достоверность
Использование точного потока : Да
Отключение кэша аудио        : Да
Использование указателей C2  : Нет
Коррекция смещения при чтении                     : 6
Способность читать области Lead-in и Lead-out     : Нет
Заполнение пропущенных сэмплов тишиной            : Да
Удаление блоков с тишиной в начале и конце        : Нет
При вычислениях CRC использовались нулевые сэмплы : Да
Интерфейс                                         : Установленный внешний ASPI-интерфейс
Выходной формат          : Пользовательский кодировщик
Выбранный битрейт        : 768 kBit/s
Качество                 : Высокий
Добавление ID3-тэга      : Нет
Утилита сжатия           : C:\Program Files\Exact Audio Copy\Flac\flac.exe
Дополнительные параметры :  -T "DATE=%y" -T "GENRE=%m" -8 -V %s
TOC извлечённого CD
     Трек |   Старт  | Длительность | Начальный сектор | Конечный сектор
    ---------------------------------------------------------------------
       1  |  0:00.00 |    3:15.67   |           0      |      14691
       2  |  3:15.67 |    4:23.41   |       14692      |      34457
       3  |  7:39.33 |    4:04.39   |       34458      |      52796
       4  | 11:43.72 |    3:44.31   |       52797      |      69627
       5  | 15:28.28 |    3:34.63   |       69628      |      85740
       6  | 19:03.16 |    4:30.58   |       85741      |     106048
       7  | 23:33.74 |    3:21.34   |      106049      |     121157
       8  | 26:55.33 |    3:35.61   |      121158      |     137343
       9  | 30:31.19 |    3:49.58   |      137344      |     154576
      10  | 34:21.02 |    3:48.15   |      154577      |     171691
      11  | 38:09.17 |    4:03.63   |      171692      |     189979
Характеристики диапазона извлечения и сообщения об ошибках
Выбранный диапазон
     Имя файла D:\Winamp\Ирина Круг и Виктор Королев - Роман.wav
     Пиковый уровень 99.9 %
0.5 X
     Качество диапазона 100.0 %
     CRC теста F91BCC90
     CRC копии F91BCC90
     Копирование... OK
Ошибок не произошло
AccurateRip: сводка
Трек  1  нет в базе данных
Трек  2  нет в базе данных
Трек  3  нет в базе данных
Трек  4  нет в базе данных
Трек  5  нет в базе данных
Трек  6  нет в базе данных
Трек  7  нет в базе данных
Трек  8  нет в базе данных
Трек  9  нет в базе данных
Трек 10  нет в базе данных
Трек 11  нет в базе данных
Ни одного трека нет в базе AccurateRip
Конец отчёта

2011 - Городские встречи (с Виктором Королевым)

Продолжительность: 01:08:16
Издатель (лейбл): Classic Company
Номер по каталогу: CC CD 89/11
Треклист:
01. Виктор Королёв - Городские встречи [04:08]
02. Ирина Круг - Я прочитаю в глазах твоих [03:33]
03. Виктор Королёв - Лилия [03:23]
04. Ирина Круг - Две странички [03:44]
05. Виктор Королёв - Плачет гитара [04:36]
06. Ирина Круг - Дом на горе [03:26]
07. Виктор Королёв - Белое платье [03:41]
08. Ирина Круг - Без тебя [03:23]
09. Виктор Королёв - Красивые слова [03:18]
10. Ирина Круг - Поле зелёное [03:25]
11. Виктор Королёв - А на ветках снегири [04:00]
12. Ирина Круг - Неужели любовь обман [04:03]
13. Виктор Королёв - Красавица [03:06]
14. Ирина Круг - После дождя [04:00]
15. Виктор Королёв - Моя любимая [04:04]
16. Ирина Круг - Я хочу быть с тобой [04:33]
17. Виктор Королёв - Только с тобой [03:39]
18. Ирина Круг - Сердцу не дай остыть [04:05]

Лог создания рипа

Exact Audio Copy V1.0 beta 1 from 15. November 2010
Отчёт EAC об извлечении, выполненном 9. декабря 2011, 19:02
Ирина Круг и Виктор Королёв / Городские встречи
Дисковод: _NEC    DV-5800E   Adapter: 0  ID: 1
Режим чтения                 : Достоверность
Использование точного потока : Да
Отключение кэша аудио        : Да
Использование указателей C2  : Нет
Коррекция смещения при чтении                     : 6
Способность читать области Lead-in и Lead-out     : Нет
Заполнение пропущенных сэмплов тишиной            : Да
Удаление блоков с тишиной в начале и конце        : Нет
При вычислениях CRC использовались нулевые сэмплы : Да
Интерфейс                                         : Установленный внешний ASPI-интерфейс
Выходной формат : Внутренние WAV-операции
Формат сэмплов  : 44.100 Гц; 16 бит; стерео
TOC извлечённого CD
     Трек |   Старт  | Длительность | Начальный сектор | Конечный сектор
    ---------------------------------------------------------------------
       1  |  0:00.00 |    4:09.00   |           0      |      18674
       2  |  4:09.00 |    3:34.33   |       18675      |      34757
       3  |  7:43.33 |    3:24.56   |       34758      |      50113
       4  | 11:08.14 |    3:45.43   |       50114      |      67031
       5  | 14:53.57 |    4:37.07   |       67032      |      87813
       6  | 19:30.64 |    3:27.67   |       87814      |     103405
       7  | 22:58.56 |    3:42.46   |      103406      |     120101
       8  | 26:41.27 |    3:24.48   |      120102      |     135449
       9  | 30:06.00 |    3:19.56   |      135450      |     150430
      10  | 33:25.56 |    3:26.43   |      150431      |     165923
      11  | 36:52.24 |    4:01.58   |      165924      |     184056
      12  | 40:54.07 |    4:04.13   |      184057      |     202369
      13  | 44:58.20 |    3:07.08   |      202370      |     216402
      14  | 48:05.28 |    4:01.15   |      216403      |     234492
      15  | 52:06.43 |    4:05.54   |      234493      |     252921
      16  | 56:12.22 |    4:34.28   |      252922      |     273499
      17  | 60:46.50 |    3:40.33   |      273500      |     290032
      18  | 64:27.08 |    4:05.56   |      290033      |     308463
Характеристики диапазона извлечения и сообщения об ошибках
Выбранный диапазон
     Имя файла C:\Documents and Settings\Admin\Рабочий стол\Круг Ирина и Королёв Виктор - Городские встречи (2011г.)\Ирина Круг и Виктор Королёв - Городские встречи.wav
     Пиковый уровень 97.0 %
0.7 X
     Качество диапазона 100.0 %
     CRC теста A5513F90
     CRC копии A5513F90
     Копирование... OK
Ошибок не произошло
AccurateRip: сводка
Трек  1  нет в базе данных
Трек  2  нет в базе данных
Трек  3  нет в базе данных
Трек  4  нет в базе данных
Трек  5  нет в базе данных
Трек  6  нет в базе данных
Трек  7  нет в базе данных
Трек  8  нет в базе данных
Трек  9  нет в базе данных
Трек 10  нет в базе данных
Трек 11  нет в базе данных
Трек 12  нет в базе данных
Трек 13  нет в базе данных
Трек 14  нет в базе данных
Трек 15  нет в базе данных
Трек 16  нет в базе данных
Трек 17  нет в базе данных
Трек 18  нет в базе данных
Ни одного трека нет в базе AccurateRip
Конец отчёта

2013 - Новое и лучшее (с Алексеем Брянцевым)

Продолжительность: 00:44:45
Издатель (лейбл): Квадро-Диск
Номер по каталогу: CD 548
Треклист:
01. Любимый взгляд [03:47]
02. Заходи ко мне во сне [03:56]
03. Только ты [03:11]
04. Если бы не ты [03:26]
05. Как будто мы с тобой [03:31]
06. В сердце твоем [03:37]
07. Просто ты одна [04:15]
08. Я буду помнить (Малыш, привет) [04:20]
09. Вернется к нам любовь [04:09]
10. Когда зима в душе пройдет [03:55]
11. Привет, малыш [03:15]
12. Скажи (дуэт Брянцева с Е.Касьяновой) bonus [03:18]

Лог создания рипа

Exact Audio Copy V1.0 beta 1 from 15. November 2010
Отчёт EAC об извлечении, выполненном 19. марта 2013, 22:58
А. Брянцев и И. Круг / Новое и лучшее
Дисковод: ASUS    DRW-24B3ST   Adapter: 0  ID: 1
Режим чтения                 : Достоверность
Использование точного потока : Да
Отключение кэша аудио        : Да
Использование указателей C2  : Нет
Коррекция смещения при чтении                     : 6
Способность читать области Lead-in и Lead-out     : Нет
Заполнение пропущенных сэмплов тишиной            : Да
Удаление блоков с тишиной в начале и конце        : Нет
При вычислениях CRC использовались нулевые сэмплы : Да
Интерфейс                                         : Встроенный Win32-интерфейс для Win NT/2000
Выходной формат          : Пользовательский кодировщик
Выбранный битрейт        : 896 kBit/s
Качество                 : Высокий
Добавление ID3-тэга      : Нет
Утилита сжатия           : C:\Program Files\FLAC\flac.exe
Дополнительные параметры : -T "DATE=%y" -T "GENRE=%m" -8 -V %s
TOC извлечённого CD
     Трек |   Старт  | Длительность | Начальный сектор | Конечный сектор
    ---------------------------------------------------------------------
       1  |  0:00.00 |    3:47.45   |           0      |      17069
       2  |  3:47.45 |    3:56.73   |       17070      |      34842
       3  |  7:44.43 |    3:11.64   |       34843      |      49231
       4  | 10:56.32 |    3:26.12   |       49232      |      64693
       5  | 14:22.44 |    3:31.17   |       64694      |      80535
       6  | 17:53.61 |    3:37.63   |       80536      |      96873
       7  | 21:31.49 |    4:15.20   |       96874      |     116018
       8  | 25:46.69 |    4:20.12   |      116019      |     135530
       9  | 30:07.06 |    4:09.34   |      135531      |     154239
      10  | 34:16.40 |    3:55.03   |      154240      |     171867
      11  | 38:11.43 |    3:15.61   |      171868      |     186553
      12  | 41:27.29 |    3:18.31   |      186554      |     201434
Характеристики диапазона извлечения и сообщения об ошибках
Выбранный диапазон
     Имя файла D:\trofim\А. Брянцев и И. Круг - Новое и лучшее.wav
     Пиковый уровень 100.0 %
0.6 X
     Качество диапазона 100.0 %
     CRC теста AE49AC33
     CRC копии AE49AC33
     Копирование... OK
Ошибок не произошло
AccurateRip: сводка
Трек  1  нет в базе данных
Трек  2  нет в базе данных
Трек  3  нет в базе данных
Трек  4  нет в базе данных
Трек  5  нет в базе данных
Трек  6  нет в базе данных
Трек  7  нет в базе данных
Трек  8  нет в базе данных
Трек  9  нет в базе данных
Трек 10  нет в базе данных
Трек 11  нет в базе данных
Трек 12  нет в базе данных
Ни одного трека нет в базе AccurateRip
Конец отчёта
====  3C59AD1541E51F0EE4F318BEE1045103E435C497A67289B62E36B21DBB3AB9F0 ====

Создавать темы 19-Дек-2015 21:22 (спустя 42 минуты)

шарик-off писал(а):

61857Аудиокодек: FLAC (*.flac)
Здравствуйте! Аудиокодек: FLAC (*.flac). mp3 нету?

Создавать темы 19-Дек-2015 21:37 (спустя 15 минут)

schuk, рядышком в mp3 менее полная дискография.
Новые альбомы есть отдельными релизами.

Создавать темы 19-Дек-2015 23:39 (спустя 2 часа 1 минута)

шарик-off писал(а):

61869schuk, рядышком в mp3 менее полная дискография.
Новые альбомы есть отдельными релизами.
Благодарю за ваше время и труд.
Яндекс.Метрика
Рейтинг@Mail.ru