XIII: Конспирация / Заговор / The Conspiracy Серии: 2-2 (2) (Дуан Кларк / Duane Clark) [2008, Канада, Франция, Боевик, Триллер, Криминал, Детектив, HDRip] MVO

 

Создавать темы 22-Дек-2013 18:34

--XIII: Конспирация / Заговор / The Conspiracy«У предательства есть цена»--
Страна: Канада , Франция
Жанр: Боевик, Триллер, Криминал, Детектив
Год выпуска: 2008
Продолжительность: 03:00:04
Перевод: Профессиональный (многоголосый закадровый)
Cубтитры: Нет--Режиссер: Дуан Кларк / Duane Clark--В ролях: Стивен Дорфф, Катерина Мурино, Грег Брайк, Стивен МакХэтти, Люсинда Дэвис, Джонатан Хиггинс, Тед Атертон, Джон Буржуа, Джессалин Гилсиг, Вэл Килмер и др.--Описание: XIII: Заговор (англ. XIII) — франко-канадский мини-сериал 2008 года из двух серий по полтора часа. Основан на одноимённой франко-бельгийской книге комиксов Жана Ван Хамма и Уильяма Вэнса, повествующей о потерявшем память герое, который стремится раскрыть своё потерянное прошлое. Режиссёр сериала — Дюан Кларк с Вэлом Килмером и Стивеном Дорффом в главных ролях. Впервые сериал был показан на телевидении Франции 6 и 13 октября 2008 года на телеканале Canal+ и в телесети NBC в США 8 и 15 февраля 2009 года.
Первая женщина-президент США, Салли Шэридан, убита выстрелом снайпера во время её выступления в День памяти ветеранов. Вслед за ней со сцены исчезает и её убийца — национальная безопасность идёт за ним по горячим следам, или же так лишь кажется. Три месяца спустя пожилая пара находит застрявшего на дереве раненого человека с парашютом. Молодой мужчина (Дорфф) не помнит ни малейшей вещи о себе. Единственной зацепкой является татуировка «XIII» у него на шее. В то же время, в Белом доме правительственная разведка всё ещё ищет убийцу президента. До новых выборов несколько недель и поимка подозреваемого может перевесить число голосов за администрацию…--Качество видео: HDRip
Формат видео: AVI
Видео кодек: XVID
Аудио кодек: AC3
Видео: XviD, 704x400 (16:9), 23.976 fps, 1468 kbps avg, 0.217 bit/pixel
Аудио: AC3 Dolby Digital, 6 channels, 48 kHz, Front: L C R, Side: L R, LFE + LFE ch, 192 kbps-- --

Актёрский состав

Стивен Дорфф — XIII
Вэл Килмер — Мангуст
Стивен Макхэтти — генерал Кэррингтон
Джессалин Гилсиг — Ким Роулэнд
Тед Атертон — Уолли Шеридан
Джон Буржуа — президент Гэлбрэйн
Грег Брайк — полковник Амос
Люсинда Дэвис — майор Джонс
Катерина Мурино — Сэм
Эндрю Джексон — Роджер Дикинс

MediaInfo

Расположение: E:\СЕРИАЛЫ\XIII.Конспирация.2008.HDRip.2.18.MVO.AllFilms.AngelOfTrue.avi
Имя файла: XIII.Конспирация.2008.HDRip.2.18.MVO.AllFilms.AngelOfTrue.avi
Формат файла: .avi (AVI)
Размер файла: 0 Byte(s)
Длительность: 3h 0mn
Навигация по главам: Нет
Bitrate (все потоки): 1 738 Kbps
...при помощи: VirtualDubMod 1.5.10.3 | www.virtualdub-fr.org || (build 2550/release)
...с использованием: VirtualDubMod build 2550/release
Название: XIII.Конспирация.2008.HDRip.2.18.MVO.AllFilms.AngelOfTrue
Тип потока: Видео
Длительность: 03:00:04
Кодек: MPEG-4 Visual
Кодек/Профиль: Advanced [email protected]
Кодек/ID: XVID
Размеры изображения: 704 x 400 (16:9)
Частота кадров: 23.976 fps
Размер потока: 1.85 GiB (84%)
Битрейт: 1 468 Kbps
Цветовое пространство: YUV
Тип развёртки: Progressive
Bits/(Pixel*Frame): 0.217
Глубина пикселя: 8 bits
Библиотека кодирования: XviD 1.2.1 (UTC 2008-12-04)
Тип потока: Звук #1
Длительность: 03:00:04.832
Кодек: AC-3
Кодек/ID: 2000
Частота дискретизации: 48.0 KHz
Каналы: 6 channels
Каналы/позиция: Front: L C R, Side: L R, LFE
Битрейт: 192 Kbps
Тип битрейта: Constant
Размер потока: 247 MiB (11%)

Скриншоты

Яндекс.Метрика
Рейтинг@Mail.ru