[ Сегодня на трекере фрилич! Идет свободное скачивание без начисления Download ]

Непобедимый (1983) DVDRip-AVC от New-Team

 

Создавать темы 16-Дек-2015 22:40

-Непобедимый (1983) DVDRip-AVC от New-Team- Страна: СССР
Производство: к/ст имени М. Горького
Жанр: боевик, приключения
Год выпуска: 1983
Продолжительность:
01:13:42
Перевод: Не требуется
Cубтитры: нет
Оригинальная аудиодорожка: русский
Режиссер: Юрий Борецкий
В ролях: Андрей Ростоцкий, Хамза Умаров, Нурмухан Жантурин, Ёдгар Сагдиев, Гульнара Дусматова, Биродар Атабаев, Дильшот Исмаилов, Николай Карпов, Тухтасын Муратов...-Описание:-Фильм посвящён памяти заслуженного мастера спорта, основоположника борьбы самбо Анатолия Аркадьевича Харлампиева (1906-1979).
Андрей Хромов одержим идеей создать вид борьбы — "самооборону без оружия". И с этой целью едет в Среднюю Азию, где знакомится с народной борьбой кураш. За время пребывания он не раз попадает в трудные ситуации, из которых выходит с честью.
-Источник: DVD5 R5
Качество видео: DVDRip-AVC
Формат видео: MKV
Видео: 704->768x366 (2,101:1), 25 fps, H264 ~ 1218 kbps avg, 0.189 bit/pixel
Аудио: 48 kHz, Dolby Digital AC3 2.0, 192 kbps-

MediaInfo

Общее
Полное имя : Nepobedimyy.1983.DVDRip-AVC_[New-team]_by_AVP_Studio.mkv
Формат : Matroska
Версия формата : Version 2
Размер файла : 744 Мбайт
Продолжительность : 1 ч. 13 м.
Общий поток : 1411 Кбит/сек
Дата кодирования : UTC 2015-11-29 10:10:40
Программа кодирования : mkvmerge v6.1.0 ('Old Devil') built on Mar 4 2013 09:10:42
Библиотека кодирования : libebml v1.3.0 + libmatroska v1.4.0
Видео
Идентификатор : 1
Формат : AVC
Формат/Информация : Advanced Video Codec
Профиль формата : [email protected]
Параметр CABAC формата : Да
Параметр ReFrames формата : 10 кадров
Идентификатор кодека : V_MPEG4/ISO/AVC
Продолжительность : 1 ч. 13 м.
Битрейт : 1218 Кбит/сек
Ширина : 704 пикселя
Высота : 366 пикселей
Соотношение сторон : 2,101
Соотношение сторон в оригинале : 2,100
Режим частоты кадров : Постоянный
Частота кадров : 25,000 кадров/сек
Цветовое пространство : YUV
Субдискретизация насыщенности : 4:2:0
Битовая глубина : 8 бит
Тип развёртки : Прогрессивная
Бит/(Пиксели*Кадры) : 0.189
Размер потока : 628 Мбайт (84%)
Библиотека кодирования : x264 core 148 r2597 e86f3a1
Настройки программы : cabac=1 / ref=10 / deblock=1:-2:-1 / analyse=0x3:0x113 / me=umh / subme=10 / psy=1 / psy_rd=1.00:0.00 / mixed_ref=1 / me_range=32 / chroma_me=1 / trellis=2 / 8x8dct=1 / cqm=0 / deadzone=21,11 / fast_pskip=1 / chroma_qp_offset=-2 / threads=6 / lookahead_threads=1 / sliced_threads=0 / nr=0 / decimate=0 / interlaced=0 / bluray_compat=0 / constrained_intra=0 / bframes=8 / b_pyramid=2 / b_adapt=2 / b_bias=0 / direct=3 / weightb=1 / open_gop=0 / weightp=2 / keyint=250 / keyint_min=25 / scenecut=40 / intra_refresh=0 / rc=2pass / mbtree=0 / bitrate=1218 / ratetol=1.0 / qcomp=0.60 / qpmin=0 / qpmax=69 / qpstep=4 / cplxblur=20.0 / qblur=0.5 / ip_ratio=1.40 / pb_ratio=1.30 / aq=1:1.00
Default : Да
Forced : Нет
Аудио
Идентификатор : 2
Формат : AC-3
Формат/Информация : Audio Coding 3
Расширение режима : CM (complete main)
Параметр Endianness формата : Big
Идентификатор кодека : A_AC3
Продолжительность : 1 ч. 13 м.
Вид битрейта : Постоянный
Битрейт : 192 Кбит/сек
Каналы : 2 канала
Расположение каналов : Front: L R
Частота : 48,0 КГц
Метод сжатия : С потерями
Размер потока : 101 Мбайт (14%)
Default : Да
Forced : Нет
-Скриншоты--Время раздачи: 24/7 (круглосуточно)-
Яндекс.Метрика
Рейтинг@Mail.ru