[ Сегодня на трекере фрилич! Идет свободное скачивание без начисления Download ]

Великая одиссея человечества / Great Human Odyssey [серии 1-3 из 3] (Найоб Томпсон) [2015 г., Документальный, история, SATRip]

 

Создавать темы 14-Дек-2015 20:27

-Великая одиссея человечества / Great Human Odyssey [серии 1-3 из 3]- Год выпуска: 2015
Страна: Канада, CBC ClearWater
Жанр: Документальный, история
Продолжительность: 3x~00:52:42
Перевод: Профессиональный (одноголосый), компания "Видеофильм ТВ"
Режиссер: Найоб Томпсон-В ролях: Ведущий: Найоб Томпсон-Описание:-Как и другие виды человека, когда-либо существовавшие на нашей планете, хомо сапиенс должен был вымереть. Каким образом мы выжили, оказавшись на грани исчезновения? Как появился язык и искусство? И что ученые называют "колыбелью человеческого разума"?-Список серий:-01. Зарождение / Rise of a Species
02. Умные обезьяны / The Adaptable Ape
03. У финишной черты / Journey’s End
-Качество: SATRip
Контейнер: AVI
Видео кодек: XviD
Аудио кодек: AC3
Видео: 704x400 25fps 1800 kbps
Аудио: AC3 2ch, 48kHz, 192 kbps-

MediaInfo

Format : AVI
Format/Info : Audio Video Interleave
File size : 749 MiB
Duration : 52mn 43s
Overall bit rate : 1 985 Kbps
Writing application : TMPGEnc Video Mastering Works 5 Version. 5.0.6.38
Writing library : TMPGEnc Video Mastering Works 5 Version. 5.0.6.38
Video
ID : 0
Format : MPEG-4 Visual
Format profile : Advanced [email protected]
Format settings, BVOP : 2
Format settings, QPel : No
Format settings, GMC : No warppoints
Format settings, Matrix : Default (H.263)
Muxing mode : Packed bitstream
Codec ID : XVID
Codec ID/Hint : XviD
Duration : 52mn 43s
Bit rate : 1 786 Kbps
Width : 720 pixels
Height : 400 pixels
Display aspect ratio : 16:9
Frame rate : 25.000 fps
Color space : YUV
Chroma subsampling : 4:2:0
Bit depth : 8 bits
Scan type : Progressive
Compression mode : Lossy
Bits/(Pixel*Frame) : 0.248
Stream size : 674 MiB (90%)
Writing library : XviD 73
Audio
ID : 1
Format : AC-3
Format/Info : Audio Coding 3
Mode extension : CM (complete main)
Format settings, Endianness : Big
Codec ID : 2000
Duration : 52mn 43s
Bit rate mode : Constant
Bit rate : 192 Kbps
Channel(s) : 2 channels
Channel positions : Front: L R
Sampling rate : 48.0 KHz
Bit depth : 16 bits
Compression mode : Lossy
Stream size : 72.4 MiB (10%)
Alignment : Aligned on interleaves
Interleave, duration : 240 ms (6.00 video frames)
Interleave, preload duration : 224 ms
-Скриншоты--Благодарность за предоставленный рип: -Время раздачи: 24/7 (круглосуточно)-
Яндекс.Метрика
Рейтинг@Mail.ru