Viasat History: Строители замков / The Castle Builders [сезон 1 серии 1-3 из 3] (John Geraint) [2015 г., Документальный, история, архитектура, SATRip]

 

Создавать темы 14-Дек-2015 18:17

-Viasat History: Строители замков / The Castle Builders [сезон 1 серии 1-3 из 3] (John Geraint)- Год выпуска: 2015
Страна: Великобритания, Green Bay Media
Жанр: Документальный, история, архитектура
Продолжительность: 3x~00:48:29
Перевод: Профессиональный (одноголосый), переведено и озвучено на студии "SDI Media", перевод Т. Вишневской, текст читает Роман Антанович
Режиссер: John Geraint-Описание:-Замки не только являлись домами и крепостями, но также были настоящими шедеврами архитектуры. Сегодня они являются памятниками истории и помогают нам лучше понять, каким образом развивалась наша цивилизация. Программа рассказывает о том, как создавались самые известные в Европе замки, и как со временем изменились технологии их строительства. Мы также узнаем о том, каким образом их защищали от нападения врага, и как постепенно эти неприступные крепости стали олицетворять роскошь и величие.-Список серий:-01. Мастера и каменщики / Master and Masons
В этой серии мы узнаем, как были построены одни из самых монументальных замков в Европе, а также как со временем изменились технологии их строительства.
02. Осады и приступы / Siege and Storm
В этой серии рассказывается о том, как была устроена защита средневекового замка.
03. Сказочное убранство / Dreams and Decoration
В этой серии рассказывается о том, как со временем изменилась основная функция замков, и как постепенно эти неприступные крепости стали олицетворять роскошь и величие.-Качество: SATRip
Контейнер: AVI
Видео кодек: XviD
Аудио кодек: AC3
Видео: 704x400 25fps 1800 kbps
Аудио: AC3 2ch, 48kHz, 192 kbps-

MediaInfo

Format : AVI
Format/Info : Audio Video Interleave
File size : 691 MiB
Duration : 48mn 29s
Overall bit rate : 1 993 Kbps
Writing application : TMPGEnc Video Mastering Works 5 Version. 5.0.6.38
Writing library : TMPGEnc Video Mastering Works 5 Version. 5.0.6.38
Video
ID : 0
Format : MPEG-4 Visual
Format profile : Advanced [email protected]
Format settings, BVOP : 2
Format settings, QPel : No
Format settings, GMC : No warppoints
Format settings, Matrix : Default (H.263)
Muxing mode : Packed bitstream
Codec ID : XVID
Codec ID/Hint : XviD
Duration : 48mn 29s
Bit rate : 1 794 Kbps
Width : 704 pixels
Height : 400 pixels
Display aspect ratio : 16:9
Frame rate : 25.000 fps
Color space : YUV
Chroma subsampling : 4:2:0
Bit depth : 8 bits
Scan type : Progressive
Compression mode : Lossy
Bits/(Pixel*Frame) : 0.255
Stream size : 622 MiB (90%)
Writing library : XviD 73
Audio
ID : 1
Format : AC-3
Format/Info : Audio Coding 3
Mode extension : CM (complete main)
Format settings, Endianness : Big
Codec ID : 2000
Duration : 48mn 28s
Bit rate mode : Constant
Bit rate : 192 Kbps
Channel(s) : 2 channels
Channel positions : Front: L R
Sampling rate : 48.0 KHz
Bit depth : 16 bits
Compression mode : Lossy
Stream size : 66.6 MiB (10%)
Alignment : Aligned on interleaves
Interleave, duration : 240 ms (6.00 video frames)
Interleave, preload duration : 224 ms
-Скриншоты--Благодарность за предоставленный рип: -Время раздачи: 24/7 (круглосуточно)-
Яндекс.Метрика
Рейтинг@Mail.ru