Романовы [01-08 из 08] (2013,Драма, история, документальный WEB-DLRip-AVC)

 

Создавать темы 22-Дек-2013 14:31

Оригинальное название: Романовы
Год выпуска: 2013
Жанр: Драма, история, документальный
Режиссер: Максим Беспалый
В ролях: Людмила Гамуряк, Андрей Бестужев, Кирилл Искратов, Андрей Домнин, Ольга Равинская, Ирина Агейкина, Илья Щербинин, Анастасия Миляева, Владимир Демидов, Дмитрий Бедарев
Описание: Уникальный по форме проект, приуроченный к 400-летию воцарения на Руси дома Романовых, который сочетает в себе элементы и игрового, и документального кино, информационной графики и анимации. История расскажет о том, что представляло собой русское самодержавие как система управления, каковы ее недостатки и преимущества, какую роль монархи дома Романовых играли в событиях российской и мировой истории. При помощи графики создается максимально исторически-достоверная картина, которая погружает зрителя в атмосферу и ощущение времени и позволяет увидеть царя глазами современников.
Выпущено: Россия, STAR MEDIA
Продолжительность: 8 х ~ 00:51:00
Язык: Русский
Качество: WEB-DLRip-AVC
Видео: MPEG-4 AVC, ~ 2231 Кбит/с, 1024x576
Аудио rus: AC3, 2 ch, 192 Кбит/с

Инфо

Полное имя : E:Romanovy.(01.seriya).2013.AVC.tahiy.mkv
Формат : Matroska
Версия формата : Version 4 / Version 2
Размер файла : 1,01 Гбайт
Продолжительность : 51 м.
Общий поток : 2818 Кбит/сек
Название фильма : Романовы - = Rip by tahiy = -
Дата кодирования : UTC 2013-11-17 15:06:25
Программа кодирования : mkvmerge v6.3.0 ('You can't stop me!') built on Jul 19 2013 16:27:38
Библиотека кодирования : libebml v1.3.0 + libmatroska v1.4.1
Видео
Идентификатор : 1
Формат : AVC
Формат/Информация : Advanced Video Codec
Профиль формата : [email protected]
Параметр CABAC формата : Да
Параметр ReFrames формата : 8 кадров
Идентификатор кодека : V_MPEG4/ISO/AVC
Продолжительность : 51 м.
Битрейт : 2624 Кбит/сек
Ширина : 1024 пикселя
Высота : 576 пикселей
Соотношение сторон : 16:9
Режим частоты кадров : Постоянный
Частота кадров : 25,000 кадров/сек
Цветовое пространство : YUV
Субдискретизация насыщенности : 4:2:0
Битовая глубина : 8 бит
Тип развёртки : Прогрессивная
Бит/(Пиксели*Кадры) : 0.178
Размер потока : 947 Мбайт (91%)
Заголовок : Романовы - = Rip by tahiy = -
Библиотека кодирования : x264 core 130 r2273 b3065e6
Настройки программы : cabac=1 / ref=8 / deblock=1:-2:-2 / analyse=0x3:0x113 / me=umh / subme=10 / psy=1 / psy_rd=1.00:0.20 / mixed_ref=1 / me_range=32 / chroma_me=1 / trellis=2 / 8x8dct=1 / cqm=0 / deadzone=21,11 / fast_pskip=0 / chroma_qp_offset=-3 / threads=6 / lookahead_threads=1 / sliced_threads=0 / nr=0 / decimate=0 / interlaced=0 / bluray_compat=0 / constrained_intra=0 / bframes=10 / b_pyramid=2 / b_adapt=2 / b_bias=0 / direct=3 / weightb=1 / open_gop=0 / weightp=2 / keyint=250 / keyint_min=25 / scenecut=40 / intra_refresh=0 / rc_lookahead=40 / rc=2pass / mbtree=0 / bitrate=2624 / ratetol=1.0 / qcomp=0.60 / qpmin=0 / qpmax=69 / qpstep=4 / cplxblur=20.0 / qblur=0.5 / vbv_maxrate=50000 / vbv_bufsize=62500 / nal_hrd=none / ip_ratio=1.40 / pb_ratio=1.30 / aq=1:1.00
Язык : Russian
Default : Да
Forced : Нет
Аудио
Идентификатор : 2
Формат : AC-3
Формат/Информация : Audio Coding 3
Расширение режима : CM (complete main)
Параметр Endianness формата : Big
Идентификатор кодека : A_AC3
Продолжительность : 51 м.
Вид битрейта : Постоянный
Битрейт : 192 Кбит/сек
Каналы : 2 канала
Расположение каналов : Front: L R
Частота : 44,1 КГц
Битовая глубина : 16 бит
Метод сжатия : С потерями
Размер потока : 70,8 Мбайт (7%)
Язык : Russian
Default : Да
Forced : Нет

Скриншоты

[
Яндекс.Метрика
Рейтинг@Mail.ru