BBC: Манускрипты в жизни английских королей / Illuminations: The Private Lives of Medieval Kings [01-03 из 03] (2012,документальный, история HDTVRip )| P2

 

Создавать темы 22-Дек-2013 05:26

Год выпуска: 2012
Страна: Великобритания
Студия: BBC
Жанр: документальный, история
Продолжительность: 3 x ~00:59:00
Перевод: Профессиональный (двухголосый закадровый) - Ред Медиа
Режиссер: Питер Свизи, Грэхэм Джонстон
Описание: Вестминстерское аббатство издавна было тем местом, где пересекались Божьи и королевские пути. На протяжении почти тысячи лет здесь короновали английских монархов. Царственные ритуалы хранят в себе отголоски средневекового мира. Но главное сокровище аббатства – это нечто, сокрытое в глубине, и почти недоступное постороннему глазу. Лишь редкий учёный может войти в Святилище – библиотеку аббатства. Здесь хранится Либер Регалис / Liber Regalis – "Книга Корней". Это – такой же символ Британской монархии как скипетр, держава и корона. Она присутствовала на всех коронациях, начиная с правления Ричарда II в конце XIV века. Это синтез истории, искусства и религии. Иллюстрированный манускрипт всегда больше, чем книга. Он обладает огромной, почти мистической силой. И для нас он может служить порталом в затерянный мир средневековой монархии.
В этом цикле передач мы подробно изучим не только Либер Регалис, но и другие жемчужины иллюстрированных (иллюминированных) рукописей. Нам был дарован полный доступ к коллекции Королевских манускриптов Британской библиотеки. Мало кому удавалось видеть эти великолепные реликвии прошлого. Их изготавливали для королей. В них писали про королей. И читали их тоже короли. Мы будем исследовать мир, в котором создавались эти манускрипты. Это история монархии, охватывающая шесть столетий: от Англо-саксонской династии до династии Тюдоров.
Качество: HDTVRip
Формат:AVI
Видео кодек: XviD
Аудио кодек: AC-3
Видео: 16:9, 2000 Кбит/сек, 720x400, 25,000 кадров/сек
Аудио: AC-3, 2 канала, 192 Кбит/сек, 48,0 КГц

Список эпизодов:

1. Правление по книге
В этой серии рассказ начнется с первых королей, объединивших Англию. Каким образом манускрипты давали им божественную власть даже при наличии человеческих слабостей?
2. Что должен знать король
В этой серии мы узнаем, как благодаря манускриптам сформировался чисто английский образ монархии, самым ярким выразителем которой стал Король-воин Генрих V.
3. Библиотеки дали нам власть
В заключительной серии мы увидим последний этап расцвета иллюстрированных рукописей и узнаем, что они значили для династии Тюдоров. Это рассказ о трех королях, при которых Англия вышла из Средневековья и вступила в век Возрождения.

MediaInfo

Формат : AVI
Формат/Информация : Audio Video Interleave
Размер файла : 932 Мбайт
Продолжительность : 59 м.
Общий поток : 2201 Кбит/сек
Программа кодирования : VirtualDubMod 1.5.10.3 | www.virtualdub-fr.org || (build 2550/release)
Библиотека кодирования : VirtualDubMod build 2550/release
Видео
Идентификатор : 0
Формат : MPEG-4 Visual
Профиль формата : Advanced [email protected]
Параметр BVOP формата : 2
Параметр QPel формата : Нет
Параметр GMC формата : Без точки перехода
Параметр матрицы формата : Default (H.263)
Режим смешивания : Сжатый битовый поток
Идентификатор кодека : XVID
Идентификатор кодека/Подсказка : XviD
Продолжительность : 59 м.
Битрейт : 2000 Кбит/сек
Ширина : 720 пикселей
Высота : 400 пикселей
Соотношение сторон : 16:9
Частота кадров : 25,000 кадров/сек
Цветовое пространство : YUV
Субдискретизация насыщенности : 4:2:0
Битовая глубина : 8 бит
Тип развёртки : Прогрессивная
Метод сжатия : С потерями
Бит/(Пиксели*Кадры) : 0.278
Размер потока : 846 Мбайт (91%)
Библиотека кодирования : XviD 1.2.1 (UTC 2008-12-04)
Аудио
Идентификатор : 1
Формат : AC-3
Формат/Информация : Audio Coding 3
Расширение режима : CM (complete main)
Параметр Endianness формата : Big
Идентификатор кодека : 2000
Продолжительность : 59 м.
Вид битрейта : Постоянный
Битрейт : 192 Кбит/сек
Каналы : 2 канала
Расположение каналов : Front: L R
Частота : 48,0 КГц
Битовая глубина : 16 бит
Метод сжатия : С потерями
Размер потока : 81,2 Мбайт (9%)
Выравнивание : Разделение по промежуткам
Продолжительность промежутка : 40 мс. (1,00 видеокадр)
Время предзагрузки промежутка : 500 мс.

Скриншоты

Яндекс.Метрика
Рейтинг@Mail.ru