[ Сегодня на трекере фрилич! Идет свободное скачивание без начисления Download ]

Марсианин / The Martian (2015) WEBRip-AVC | Звук с TS

 

Создавать темы 10-Дек-2015 21:28

Марсианин / The MartianГод выхода: 2015
Жанр: фантастика, приключения
Режиссер: Ридли Скотт
В ролях:
Мэтт Дэймон, Джессика Честейн, Кристен Уиг, Джефф Дэниелс, Майкл Пенья, Шон Бин, Кейт Мара, Себастьян Стэн, Аксель Хенни, Чиветель Эджиофор
О фильме:
Марсианская миссия «Арес-3» в процессе работы была вынуждена экстренно покинуть планету из-за надвигающейся песчаной бури. Инженер и биолог Марк Уотни получил повреждение скафандра во время песчаной бури. Сотрудники миссии, посчитав его погибшим, эвакуировались с планеты, оставив Марка одного. Очнувшись, Уотни обнаруживает, что связь с Землёй отсутствует, но при этом полностью функционирует жилой модуль. Главный герой начинает искать способ продержаться на имеющихся запасах еды, витаминов, воды и воздуха ещё 4 года до прилёта следующей миссии «Арес-4».


Выпущено: США / 20th Century Fox Film Corporation, Genre Films, International Traders, Mid Atlantic Films, Scott Free Productions
Продолжительность: 02:21:34
Озвучивание: Дублированное [звук c TS]
Примечания: Местами имеются корейские субтитры
Файл
Формат: MKV
Качество: WEBRip-AVC
Видео: 2 446 kb/s, 1088x608
Аудио: Russian / English: AC3, 192 kb/s (2 ch)
Размер: 2.86 Gb-

Media Info

General
Unique ID                                : 186548452365676111587090845378961440022 (0x8C57ECD00323454899A0851554277D16)
Complete name                            : MaPC1aH1H.2015.Dt.WEBRip.720p.mkv
Format                                   : Matroska
Format version                           : Version 2
File size                                : 2.86 GiB
Duration                                 : 2h 21mn
Overall bit rate                         : 2 888 Kbps
Encoded date                             : UTC 2015-12-09 23:17:51
Writing application                      : mkvmerge v8.3.0 ('Over the Horizon') 64bit
Writing library                          : libebml v1.3.1 + libmatroska v1.4.2
DURATION                                 : 02:21:34.560000000
NUMBER_OF_FRAMES                         : 353940
NUMBER_OF_BYTES                          : 203869440
_STATISTICS_WRITING_APP                  : mkvmerge v8.3.0 ('Over the Horizon') 64bit
_STATISTICS_WRITING_DATE_UTC             : 2015-12-09 23:17:51
_STATISTICS_TAGS                         : BPS DURATION NUMBER_OF_FRAMES NUMBER_OF_BYTES
Video
ID                                       : 1
Format                                   : MPEG-4 Visual
Format profile                           : [email protected]
Format settings, BVOP                    : Yes
Format settings, QPel                    : No
Format settings, GMC                     : No warppoints
Format settings, Matrix                  : Default (H.263)
Codec ID                                 : V_MS/VFW/FOURCC / XVID
Codec ID/Hint                            : XviD
Bit rate                                 : 2 446 Kbps
Width                                    : 1 088 pixels
Height                                   : 608 pixels
Display aspect ratio                     : 16:9
Frame rate mode                          : Variable
Original frame rate                      : 60.000 fps
Color space                              : YUV
Chroma subsampling                       : 4:2:0
Bit depth                                : 8 bits
Scan type                                : Progressive
Compression mode                         : Lossy
Default                                  : Yes
Forced                                   : No
Audio #1
ID                                       : 2
Format                                   : MPEG Audio
Format version                           : Version 1
Format profile                           : Layer 3
Mode                                     : Joint stereo
Codec ID                                 : A_MPEG/L3
Codec ID/Hint                            : MP3
Duration                                 : 2h 21mn
Bit rate mode                            : Constant
Bit rate                                 : 192 Kbps
Channel(s)                               : 2 channels
Sampling rate                            : 48.0 KHz
Compression mode                         : Lossy
Stream size                              : 194 MiB (7%)
Language                                 : Russian
Default                                  : Yes
Forced                                   : No
Audio #2
ID                                       : 3
Format                                   : MPEG Audio
Format version                           : Version 1
Format profile                           : Layer 2
Codec ID                                 : A_MPEG/L2
Codec ID/Hint                            : MP2
Duration                                 : 2h 21mn
Bit rate mode                            : Constant
Bit rate                                 : 192 Kbps
Channel(s)                               : 2 channels
Sampling rate                            : 48.0 KHz
Compression mode                         : Lossy
Stream size                              : 194 MiB (7%)
Language                                 : English
Default                                  : No
Forced                                   : No

Скриншоты:

Яндекс.Метрика
Рейтинг@Mail.ru