Багровый пик / Crimson Peak (2015) WEB-DL 1080p | iTunes

 

Создавать темы 10-Дек-2015 21:18

Багровый пик / Crimson Peak Год выхода: 2015
Жанр: ужасы, фэнтези, триллер, драма, мелодрама, детектив
Режиссер: Гильермо дель Торо
В ролях:
Миа Васиковска, Джессика Честейн, Том Хиддлстон, Чарли Ханнэм, Джим Бивер, Берн Горман, Лесли Хоуп, Даг Джонс, Джонатан Хайд, Брюс Грэй
О фильме:
Дурная слава преследует дом, что возвышается над городом. С приходом зимы он утопает в кровавых снегах. Говорят, дело в глине, проступающей на поверхность. Но ни единая душа не рискует ступить на ледяной склон… кроме нее. Она влюблена в таинственного незнакомца, живущего в древних стенах со своей сестрой. Багровый пик пробудился и уже не уснет.

Выпущено: США, Канада / Legendary Pictures
Продолжительность: 01:58:36
Озвучивание: Дублированное [iTunes]
Файл
Формат: MKV (x284)
Качество: WEB-DL 1080p
Видео: 4939 kb/s, 1916x1032
Аудио: AC3, 384 kb/s (6 ch)

МедиаИнфо

Format                         : Matroska
Format version                 : Version 4 / Version 2
File size                      : 4.50 GiB
Duration                       : 1h 58mn
Overall bit rate               : 5 431 Kbps
Encoded date                   : UTC 2015-12-09 19:21:15
Writing application            : mkvmerge v8.3.0 ('Over the Horizon') 64bit
Writing library                : libebml v1.3.1 + libmatroska v1.4.2
Video
ID                             : 1
Format                         : AVC
Format/Info                    : Advanced Video Codec
Format profile                 : [email protected]
Format settings, CABAC         : Yes
Format settings, ReFrames      : 4 frames
Codec ID                       : V_MPEG4/ISO/AVC
Duration                       : 1h 58mn
Bit rate                       : 4 939 Kbps
Width                          : 1 916 pixels
Height                         : 1 032 pixels
Display aspect ratio           : 1.85:1
Frame rate mode                : Constant
Frame rate                     : 23.976 fps
Color space                    : YUV
Chroma subsampling             : 4:2:0
Bit depth                      : 8 bits
Scan type                      : Progressive
Bits/(Pixel*Frame)             : 0.104
Stream size                    : 4.09 GiB (91%)
Language                       : English
Default                        : Yes
Forced                         : No
Color range                    : Limited
Color primaries                : BT.709
Transfer characteristics       : BT.709
Matrix coefficients            : BT.709
Audio
ID                             : 2
Format                         : AC-3
Format/Info                    : Audio Coding 3
Mode extension                 : CM (complete main)
Format settings, Endianness    : Big
Codec ID                       : A_AC3
Duration                       : 1h 58mn
Bit rate mode                  : Constant
Bit rate                       : 384 Kbps
Channel(s)                     : 6 channels
Channel positions              : Front: L C R, Side: L R, LFE
Sampling rate                  : 48.0 KHz
Bit depth                      : 16 bits
Compression mode               : Lossy
Stream size                    : 326 MiB (7%)
Language                       : Russian
Default                        : Yes
Forced                         : No
Menu
00:00:00.000                   : en:глава 1
00:06:02.000                   : en:глава 2
00:11:01.000                   : en:глава 3
00:15:29.000                   : en:глава 4
00:21:12.000                   : en:глава 5
00:25:52.000                   : en:глава 6
00:31:13.000                   : en:глава 7
00:39:25.000                   : en:глава 8
00:45:40.000                   : en:глава 9
00:51:56.000                   : en:глава 10
00:56:11.000                   : en:глава 11
01:02:04.000                   : en:глава 12
01:08:19.000                   : en:глава 13
01:14:24.000                   : en:глава 14
01:20:18.000                   : en:глава 15
01:25:54.000                   : en:глава 16
01:30:37.000                   : en:глава 17
01:36:09.000                   : en:глава 18
01:43:20.000                   : en:глава 19
01:51:22.000                   : en:глава 20

Скриншоты:

Яндекс.Метрика
Рейтинг@Mail.ru