[ Сегодня на трекере фрилич! Идет свободное скачивание без начисления Download ]

VA - Станция 2000 (2000) FLAC

 

Создавать темы 09-Дек-2015 20:44

-VA - Станция 2000- Жанр: House, Rave
Носитель: CD
Страна-производитель диска (релиза): Россия
Год издания: 2000
Издатель (лейбл): De Luxe Records
Номер по каталогу: D001
Аудиокодек: FLAC (*.flac)
Тип рипа: image+.cue
Битрейт аудио: lossless
Продолжительность: 01:17:59
Наличие сканов в содержимом раздачи: да
Треклист:
01 - Intro - Intro
02 - Klubbheads - Tur Up The Bass (radio mix)
03 - Sash! - Adelante (radio mix)
04 - ATB - The Summer (radio edit)
05 - Moby - Why Does My Heart Feel So Bad (ATB remix)
06 - Alisce Deejey - Will I Ever (album version)
07 - Paul Van Dyk & Saint Etiene - Tell Me Why (The Riddle) (radio mix)
08 - Chicane feat Bryan Adams - Don't Give Up (original radio edit)
09 - dj Jean - Love Come Home (radio mix)
10 - Tommy Or Zox - My Disire (extended mix)
11 - Madison Avenue - Don't Call Me Baby
12 - Moloko - Time Is Now (radio edit)
13 - dj Tonka - Don't Be Afraid (To Let Yourself Go) (straight disco edit)
14 - Armand Van Helden - U Don't Know Me (radio edit)
15 - Bob Marley vs Funkstar De Luxe - Sun Is Shining (rainbow mix)
16 - www.gutes-abc.de - A (radio mix)
17 - Yomanda - Sunshine (original mix)
18 - Scooter - I'm Your Pusher (extended mix)
19 - Cosmonova - Dance Avec Moi (radio edit)
20 - Fragma - Toca Me (extended 12 club mix)
21 - York - On The Beach (radio edit)
22 - Antilope - Start Rockin' (radio mix)

Лог создания рипа

Exact Audio Copy V0.99 prebeta 4 from 23. January 2008
EAC extraction logfile from 8. December 2015, 4:11
Various / Станция 2000
Used drive  : GIGABYTEGO-D1600C   Adapter: 3  ID: 0
Read mode               : Secure
Utilize accurate stream : Yes
Defeat audio cache      : Yes
Make use of C2 pointers : No
Read offset correction                      : 12
Overread into Lead-In and Lead-Out          : No
Fill up missing offset samples with silence : Yes
Delete leading and trailing silent blocks   : No
Null samples used in CRC calculations       : Yes
Used interface                              : Native Win32 interface for Win NT & 2000
Used output format : Internal WAV Routines
Sample format      : 44.100 Hz; 16 Bit; Stereo
TOC of the extracted CD
     Track |   Start  |  Length  | Start sector | End sector
    ---------------------------------------------------------
        1  |  0:00.00 |  0:04.00 |         0    |      299
        2  |  0:04.00 |  3:47.46 |       300    |    17370
        3  |  3:51.46 |  3:30.59 |     17371    |    33179
        4  |  7:22.30 |  3:42.55 |     33180    |    49884
        5  | 11:05.10 |  3:47.52 |     49885    |    66961
        6  | 14:52.62 |  3:26.50 |     66962    |    82461
        7  | 18:19.37 |  3:46.44 |     82462    |    99455
        8  | 22:06.06 |  3:25.48 |     99456    |   114878
        9  | 25:31.54 |  3:39.66 |    114879    |   131369
       10  | 29:11.45 |  4:26.14 |    131370    |   151333
       11  | 33:37.59 |  3:50.61 |    151334    |   168644
       12  | 37:28.45 |  3:40.57 |    168645    |   185201
       13  | 41:09.27 |  3:44.42 |    185202    |   202043
       14  | 44:53.69 |  4:00.06 |    202044    |   220049
       15  | 48:54.00 |  4:01.04 |    220050    |   238128
       16  | 52:55.04 |  3:44.61 |    238129    |   254989
       17  | 56:39.65 |  3:10.47 |    254990    |   269286
       18  | 59:50.37 |  4:41.58 |    269287    |   290419
       19  | 64:32.20 |  2:50.21 |    290420    |   303190
       20  | 67:22.41 |  3:54.12 |    303191    |   320752
       21  | 71:16.53 |  3:13.17 |    320753    |   335244
       22  | 74:29.70 |  3:29.20 |    335245    |   350939
Range status and errors
Selected range
     Filename D:TempVA - Станция 2000 - 2000Various - Станция 2000.wav
     Peak level 100.0 %
     Range quality 100.0 %
     Test CRC A05C8F87
     Copy CRC A05C8F87
     Copy OK
No errors occurred
AccurateRip summary
Track  1  not present in database
Track  2  not present in database
Track  3  not present in database
Track  4  not present in database
Track  5  not present in database
Track  6  not present in database
Track  7  not present in database
Track  8  not present in database
Track  9  not present in database
Track 10  not present in database
Track 11  not present in database
Track 12  not present in database
Track 13  not present in database
Track 14  not present in database
Track 15  not present in database
Track 16  not present in database
Track 17  not present in database
Track 18  not present in database
Track 19  not present in database
Track 20  not present in database
Track 21  not present in database
Track 22  not present in database
None of the tracks are present in the AccurateRip database
End of status report
Яндекс.Метрика
Рейтинг@Mail.ru