[ Сегодня на трекере фрилич! Идет свободное скачивание без начисления Download ]

Скауты против зомби / Scouts Guide to the Zombie Apocalypse (2015) WEB-DL 720p | Звук с CAMRip

 

Создавать темы 08-Дек-2015 22:28

Скауты против зомби / Scouts Guide to the Zombie ApocalypseГод выхода: 2015
Жанр: ужасы, комедия
Режиссер: Кристофер Лэндон
В ролях:
Тай Шеридан, Логан Миллер, Джои Морган, Сара Дюмон, Дэвид Кокнер, Холстон Сейдж, Клорис Личмен, Ники Косс, Хирам А. Мюррэй, Лукас Гейдж
О фильме:
Встречайте самую нелепую команду героев в мире — трое закадычных друзей-бойскаутов и безбашенная официантка. Именно им выпадает миссия остановить зомбиапокалипсис, который уже погрузил в хаос захолустный сонный городок и грозит охватить всю планету. Последняя надежда человечества — скаутские приемы и умения. К борьбе с зомби будь готов! Всегда готов!


Выпущено: США / Paramount Pictures, Broken Road Productions
Продолжительность: 01:33:09
Озвучивание: Дублированное [Звук с CAMRip]
Файл
Формат: MKV
Качество: WEB-DL 720p
Видео: MPEG-4 AVC, 3924 kb/s, 1280x536
Аудио: Russian: AC3, 192 kb/s (2 ch) / English: AC3, 384 kb/s (6 ch)
Субтитры: English

MI

Format                         : Matroska
Format version                 : Version 2
File size                      : 2.99 GiB
Duration                       : 1h 33mn
Overall bit rate               : 4 591 Kbps
Encoded date                   : UTC 2015-12-08 13:57:17
Writing application            : mkvmerge v7.8.0 ('River Man') 32bit built on Apr  3 2015 12:11:22
Writing library                : libebml v1.3.1 + libmatroska v1.4.2
Video
ID                             : 1
Format                         : AVC
Format/Info                    : Advanced Video Codec
Format profile                 : [email protected]
Format settings, CABAC         : No
Format settings, ReFrames      : 2 frames
Codec ID                       : V_MPEG4/ISO/AVC
Duration                       : 1h 33mn
Bit rate                       : 3 924 Kbps
Width                          : 1 280 pixels
Height                         : 536 pixels
Display aspect ratio           : 2.40:1
Frame rate mode                : Constant
Frame rate                     : 23.976 fps
Color space                    : YUV
Chroma subsampling             : 4:2:0
Bit depth                      : 8 bits
Scan type                      : Progressive
Bits/(Pixel*Frame)             : 0.239
Stream size                    : 2.55 GiB (85%)
Language                       : English
Default                        : Yes
Forced                         : No
Color range                    : Limited
Color primaries                : BT.709
Transfer characteristics       : BT.709
Matrix coefficients            : BT.709
Audio #1
ID                             : 2
Format                         : AC-3
Format/Info                    : Audio Coding 3
Mode extension                 : CM (complete main)
Format settings, Endianness    : Big
Codec ID                       : A_AC3
Duration                       : 1h 33mn
Bit rate mode                  : Constant
Bit rate                       : 192 Kbps
Channel(s)                     : 2 channels
Channel positions              : Front: L R
Sampling rate                  : 48.0 KHz
Bit depth                      : 16 bits
Compression mode               : Lossy
Stream size                    : 128 MiB (4%)
Language                       : Russian
Default                        : Yes
Forced                         : No
Audio #2
ID                             : 3
Format                         : AC-3
Format/Info                    : Audio Coding 3
Mode extension                 : CM (complete main)
Format settings, Endianness    : Big
Codec ID                       : A_AC3
Duration                       : 1h 33mn
Bit rate mode                  : Constant
Bit rate                       : 384 Kbps
Channel(s)                     : 6 channels
Channel positions              : Front: L C R, Side: L R, LFE
Sampling rate                  : 48.0 KHz
Bit depth                      : 16 bits
Compression mode               : Lossy
Stream size                    : 256 MiB (8%)
Language                       : English
Default                        : No
Forced                         : No
Text
ID                             : 4
Format                         : UTF-8
Codec ID                       : S_TEXT/UTF8
Codec ID/Info                  : UTF-8 Plain Text
Language                       : English
Default                        : No
Forced                         : No
Menu
00:00:00.000                   : en:Chapter 1
00:06:44.000                   : en:Chapter 2
00:14:52.000                   : en:Chapter 3
00:21:30.000                   : en:Chapter 4
00:27:01.000                   : en:Chapter 5
00:31:29.000                   : en:Chapter 6
00:39:24.000                   : en:Chapter 7
00:45:57.000                   : en:Chapter 8
00:51:13.000                   : en:Chapter 9
00:57:31.000                   : en:Chapter 10
01:06:07.000                   : en:Chapter 11
01:12:08.000                   : en:Chapter 12
01:19:59.000                   : en:Chapter 13
01:26:03.000                   : en:Chapter 14

Скриншоты:

Яндекс.Метрика
Рейтинг@Mail.ru