[ Сегодня на трекере фрилич! Идет свободное скачивание без начисления Download ]

Аватар / Avatar (2009) BDRip [H.264] [Extended Cut]

 

Создавать темы 08-Дек-2015 20:49

-Аватар / Avatar (2009) BDRip [H.264]
« Это новый мир »
- Производство: США, Великобритания / 20th Century Fox Film Corporation, Dune Entertainment, Ingenious Media, Millennium Films, Giant Studios Inc.
Жанр: Фантастика, Боевик, Драма, Приключения
Режиссер: Джеймс Кэмерон
Актеры: Сэм Уортингтон, Зои Салдана, Сигурни Уивер, Стивен Лэнг, Мишель Родригес, Джованни Рибизи, Джоэль Мур, Си Си Эйч Паундер, Уэс Стьюди, Лас Алонсо, Дилип Рао, Мэтт Джералд, Шон Энтони Моран, Джейсон Уайт, Скотт Лоуренс, Шон Патрик Мерфи, Джеймс Патрик Питт, Кевин Дорман, Келсон Хендерсон, Дэвид Ван Хорн
Описание: Джейк Салли - бывший морской пехотинец, прикованный к инвалидному креслу. Несмотря на немощное тело, Джейк в душе по-прежнему остается воином. Он получает задание совершить путешествие в несколько световых лет к базе землян на планете Пандора, где корпорации добывают редкий минерал, имеющий огромное значение для выхода Земли из энергетического кризиса.

Возраст: 12+ (зрителям, достигшим 12 лет)
Рейтинг MPAA: PG-13 (детям до 13 лет просмотр нежелателен)
Продолжительность: 02:58:09
Качество видео: BDRip
Перевод: Дублированный, двуголосый закадровый, одноголосый закадровый
Язык субтитров: Русский (Forced, Full), Английский (Forced, Full)
Видео: MPEG-4 AVC/H.264, 3000 Kbps, 1024x576
Аудио 1: Русский AC3 5.1, 448 Kbps, 48.0 KHz (Дублированный) Blu-ray EUR
Аудио 2: Русский AC3 5.1, 448 Kbps, 48.0 KHz (Двуголосый закадровый) Кубик в кубе
Аудио 3: Русский AC3 5.1, 448 Kbps, 48.0 KHz (Одноголосый закадровый) Ю. Сербин
Аудио 4: Английский AC3 5.1, 448 Kbps, 48.0 KHz (Оригинал)

MediaInfo

Общее
Полное имя                               : Аватар.mkv
Формат                                   : Matroska
Версия формата                           : Version 1
Размер файла                             : 5,97 Гбайт
Продолжительность                        : 2 ч. 58 м.
Общий поток                              : 4795 Кбит/сек
Дата кодирования                         : UTC 2015-12-08 16:02:08
Программа кодирования                    : mkvmerge v2.4.1 ('Use Me') built on Dec  5 2008 18:30:05
Библиотека кодирования                   : libebml v0.7.7 + libmatroska v0.8.1
Видео
Идентификатор                            : 1
Формат                                   : AVC
Формат/Информация                        : Advanced Video Codec
Профиль формата                          : [url=mailto:[email protected]][email protected][/url]
Параметр CABAC формата                   : Да
Параметр ReFrames формата                : 10 кадров
Идентификатор кодека                     : V_MPEG4/ISO/AVC
Продолжительность                        : 2 ч. 58 м.
Битрейт                                  : 3000 Кбит/сек
Ширина                                   : 1024 пикселя
Высота                                   : 576 пикселей
Соотношение сторон                       : 16:9
Режим частоты кадров                     : Постоянный
Частота кадров                           : 23,976 кадра/сек
Цветовое пространство                    : YUV
Субдискретизация насыщенности            : 4:2:0
Битовая глубина                          : 8 бит
Тип развёртки                            : Прогрессивная
Бит/(Пиксели*Кадры)                      : 0.212
Размер потока                            : 3,62 Гбайт (61%)
Заголовок                                : Аватар (2009)
Библиотека кодирования                   : x264 core 148 r2638 7599210
Настройки программы                      : cabac=1 / ref=10 / deblock=1:-3:-3 / analyse=0x3:0x133 / me=umh / subme=10 / psy=1 / psy_rd=1.00:0.10 / mixed_ref=1 / me_range=48 / chroma_me=1 / trellis=2 / 8x8dct=1 / cqm=0 / deadzone=21,11 / fast_pskip=0 / chroma_qp_offset=-3 / threads=6 / lookahead_threads=1 / sliced_threads=0 / nr=0 / decimate=1 / interlaced=0 / bluray_compat=0 / constrained_intra=0 / bframes=5 / b_pyramid=2 / b_adapt=2 / b_bias=0 / direct=3 / weightb=1 / open_gop=0 / weightp=2 / keyint=240 / keyint_min=22 / scenecut=40 / intra_refresh=0 / rc_lookahead=40 / rc=2pass / mbtree=1 / bitrate=3000 / ratetol=1.0 / qcomp=0.60 / qpmin=10 / qpmax=51 / qpstep=4 / cplxblur=20.0 / qblur=0.5 / ip_ratio=1.40 / aq=1:1.00
Язык                                     : English
Default                                  : Да
Forced                                   : Нет
Аудио #1
Идентификатор                            : 2
Формат                                   : AC-3
Формат/Информация                        : Audio Coding 3
Расширение режима                        : CM (complete main)
Параметр Endianness формата              : Big
Идентификатор кодека                     : A_AC3
Продолжительность                        : 2 ч. 58 м.
Вид битрейта                             : Постоянный
Битрейт                                  : 448 Кбит/сек
Каналы                                   : 6 каналов
Расположение каналов                     : Front: L C R, Side: L R, LFE
Частота                                  : 48,0 КГц
Метод сжатия                             : С потерями
Размер потока                            : 571 Мбайт (9%)
Заголовок                                : AC3 (Дублированный) Blu-ray EUR
Язык                                     : Russian
Default                                  : Да
Forced                                   : Нет
Аудио #2
Идентификатор                            : 3
Формат                                   : AC-3
Формат/Информация                        : Audio Coding 3
Расширение режима                        : CM (complete main)
Параметр Endianness формата              : Big
Идентификатор кодека                     : A_AC3
Продолжительность                        : 2 ч. 58 м.
Вид битрейта                             : Постоянный
Битрейт                                  : 448 Кбит/сек
Каналы                                   : 6 каналов
Расположение каналов                     : Front: L C R, Side: L R, LFE
Частота                                  : 48,0 КГц
Метод сжатия                             : С потерями
Размер потока                            : 571 Мбайт (9%)
Заголовок                                : AC3 (Двухголосый) Кубик в кубе
Язык                                     : Russian
Default                                  : Нет
Forced                                   : Нет
Аудио #3
Идентификатор                            : 4
Формат                                   : AC-3
Формат/Информация                        : Audio Coding 3
Расширение режима                        : CM (complete main)
Параметр Endianness формата              : Big
Идентификатор кодека                     : A_AC3
Продолжительность                        : 2 ч. 58 м.
Вид битрейта                             : Постоянный
Битрейт                                  : 448 Кбит/сек
Каналы                                   : 6 каналов
Расположение каналов                     : Front: L C R, Side: L R, LFE
Частота                                  : 48,0 КГц
Метод сжатия                             : С потерями
Размер потока                            : 571 Мбайт (9%)
Заголовок                                : AC3 (Одноголосый) Ю. Сербин
Язык                                     : Russian
Default                                  : Нет
Forced                                   : Нет
Аудио #4
Идентификатор                            : 5
Формат                                   : AC-3
Формат/Информация                        : Audio Coding 3
Расширение режима                        : CM (complete main)
Параметр Endianness формата              : Big
Идентификатор кодека                     : A_AC3
Продолжительность                        : 2 ч. 58 м.
Вид битрейта                             : Постоянный
Битрейт                                  : 448 Кбит/сек
Каналы                                   : 6 каналов
Расположение каналов                     : Front: L C R, Side: L R, LFE
Частота                                  : 48,0 КГц
Метод сжатия                             : С потерями
Размер потока                            : 571 Мбайт (9%)
Заголовок                                : AC3 (Оригинал)
Язык                                     : English
Default                                  : Нет
Forced                                   : Нет
Текст #1
Идентификатор                            : 6
Формат                                   : UTF-8
Идентификатор кодека                     : S_TEXT/UTF8
Идентификатор кодека/Информация          : UTF-8 Plain Text
Заголовок                                : Русские (Форсированные)
Язык                                     : Russian
Default                                  : Да
Forced                                   : Нет
Текст #2
Идентификатор                            : 7
Формат                                   : UTF-8
Идентификатор кодека                     : S_TEXT/UTF8
Идентификатор кодека/Информация          : UTF-8 Plain Text
Заголовок                                : Английские (Форсированные)
Язык                                     : English
Default                                  : Нет
Forced                                   : Нет
Текст #3
Идентификатор                            : 8
Формат                                   : UTF-8
Идентификатор кодека                     : S_TEXT/UTF8
Идентификатор кодека/Информация          : UTF-8 Plain Text
Заголовок                                : Русские
Язык                                     : Russian
Default                                  : Нет
Forced                                   : Нет
Текст #4
Идентификатор                            : 9
Формат                                   : UTF-8
Идентификатор кодека                     : S_TEXT/UTF8
Идентификатор кодека/Информация          : UTF-8 Plain Text
Заголовок                                : Английские
Язык                                     : English
Default                                  : Нет
Forced                                   : Нет

Дополнительная информация

» Первый фильм, кассовые сборы которого в прокате составили более 2-х миллиардов долларов.
» В разговоре с Джейком Салли полковник вскользь упоминает, что участвовал в операциях американского военного контингента в Венесуэле и Нигерии и чудом остался жив. Следовательно, действие фильма происходит уже после вторжения США в эти страны. Обе они в нашей реальности богаты нефтью и прочими минеральными ресурсами.
» Кэмерон придумал сюжет фильма и написал первую версию сценария в 1995 году.
» 21 августа 2009 года было объявлено «всемирным днем Аватара». В этот день по всей планете состоялись показы 15-минутного фрагмента картины.
» События картины разворачиваются на Пандоре, спутнике со средой, похожей на земную, вращающемся по орбите планеты-гиганта Полифемуса в системе Альфа Центавра-А.
» Изначально Джеймс Кэмерон планировал выпустить картину на экраны в 1999 году. Однако, учитывая сложность и масштабность спецэффектов, которые собирался создать Кэмерон, бюджет фильма должен был составить около $400 миллионов. Даже несмотря на гигантский кассовый успех «Титаника» (1997) ни одна студия не могла позволить себе выделить такие средства. Проект лег на полку, где находился около 10 лет.
» Майкл Бин претендовал на одну из ролей в фильме. Он несколько раз встречался с Джеймсом Кэмероном. Однако Джеймс не хотел, чтобы фильм ассоциировался у зрителей с «Чужими» (1986), т. к. Сигурни Уивер уже подписала контракт на съёмки.
» Для фильма Кэмерон разработал специальную технологию, которая позволяла во время съёмок видеть на экране мониторов компьютерных персонажей вместе с живыми актерами.
» Премьера фильма была перенесена с лета на декабрь 2009. Однако задержка объясняется вовсе не техническими сложностями в производстве картины, а возможностью дать кинотеатрам лишнее время подготовиться к 3D релизу фильма.
» Фильм состоит на 40% из живой съемки и на 60% из реалистичной компьютерной графики.
» В оригинальном сценарии Кэмерона листва растений была такой же синей, как кожа На’Ви, но в конечном счете он решил использовать зеленый цвет для большей реалистичности.
» Большая часть эпизодов фильма с натуральным движением снималась в Веллингтоне, Новая Зеландия, где были возведены огромные декорации. Это было похоже на настоящее масштабное строительство. Для конструирования декораций была создана огромная субструктура с использованием более чем 150 строителей-подрядчиков.
» Реальные декорации включают в себя Комнату связи, где установлены подобия саркофагов, при помощи которых сознание человека переносится в тело аватара, Биолабораторию — помещение для работы ученых и место хранения резервуаров с амниотической жидкостью, в которых находятся тела аватаров, достигшие состояния зрелости за время шестилетнего путешествия с Земли на Пандору; Центр управления, представляющий собой центральную нервную систему базы «Врата Ада», и военный бастион Armor Bay, где хранятся костюмы усиленной подвижности и вертолеты.
» Кэмерон позвал в команду Пола Фроммера (Paul Frommer), лингвиста Университета Южной Калифорнии, для того чтобы тот придумал язык На`Ви, синекожих обитателей планеты Пандора. Для того, чтобы облегчить режиссёру выбор, Фроммер записал на диктофон множество звуковых образцов. Кэмерон остановил свой выбор на абруптивных согласных и отрывистых фразах, слегка напоминающих сдавленную речь. На составление одной только грамматики ушло несколько месяцев. Фроммер раздал актёрам «Аватара» брошюру «Говорим на На`Ви» и начал обучать их правильному произношению на новом языке. Кэмерон также приглашал к сотрудничеству и других экспертов — астрофизиков, профессора музыки, археолога. Эти специалисты рассчитали плотность атмосферы Пандоры, а также учредили трёхчастную структуру ладов в музыке инопланетян.
» Для создания фильма потребовалось около 1-го петабайта дискового пространства (1024 терабайта)… Для сравнения — все спецэффекты «Титаника» заняли в 500 раз меньше, около 2-х терабайт.
» На совещании перед решающей битвой полковник Куоритч (Стивен Лэнг) объявляет, что операция по усмирению пандоранцев получила кодовое название «Шок и трепет» (англ. Shock and awe). Так называлась военная доктрина американского контингента на Ближнем Востоке, разработанная специально для вторжения в Ирак.
» Любопытен тот факт, что у аватаров людей пять пальцев, тогда как у жителей Пандоры всего четыре.
» Ещё до выпуска фильма, в эпизоде «Танцы с гномами» мультсериала «Южный парк», появилась сатира на историю создания и сюжет фильма.
» На роль Джейка студия планировала пригласить Мэтта Дэймона или Джейка Джилленхола, но Кэмерон отстоял кандидатуру Сэма Уортингтона.
» Газ, используемый военными для усмирения На`ви, называется СМ-20. В фильме «Чужие» (1986) (также режиссера Джеймса Кэмерона и главной героини Сигурни Уивер), Васкес предлагает использовать CM-20 нервно-паралитический газ, чтобы атаковать улей Чужих.
» Сэм Уортингтон был приглашен на кастинг по телефону. Тот кто звонил, не сказал ему ни одного слова о сюжете и даже не раскрыл имени режиссера. Сэм был разочарован, так как думал что это очередная трата времени.
» Джоди Фостер расcматривалась для роли доктора Грейс Августин.
» Год никогда не указывали в фильме, но видеоблог Джейка показывает 2154 год. Финальная битва состоялась в августе 2154, 200 лет со дня рождения Джеймса Кэмерона.
» Полная версия фильма имеет хронометраж, равный 171 минуте.
Скриншоты:
Время раздачи: С 9:00 до 21:00
Яндекс.Метрика
Рейтинг@Mail.ru