Эммануэль 2 / Emmanuelle: L'antivierge (1975) BDRemux [1080p]

 

Создавать темы 22-Дек-2013 04:01

-Эммануэль 2 / Emmanuelle: L'antivierge (1975) BDRemux- Год выпуска: 1975
Жанр: Эротика, Мелодрама
Производство: Франция
Режиссер: Франсис Джакобетти
Актеры: Сильвия Кристель, Умберто Орсини, Фредерик Лагаш, Катрин Риве, Анри Черняк, Том Кларк, Мэрион Уомбл, Флоранс Л. Афума, Клер Ришар, Лаура Гемсер
Описание фильма:
Во втором фильме знаменитого сериала Эммануэль из прилежной ученицы, усваивающей уроки любви, превращается в неистовую и ненасытную охотницу за наслаждениями. Незатейливый сюжет украшен пейзажами и нарядами, автомобилями и океанскими волнами, и наполнен страстью, страстью, страстью...-

Дата мировой премьеры: 15 декабря 1975-Продолжительность: 01:31:24
Перевод: Многоголосый закадровый, авторский одноголосый
Субтитры: Вшитые отключаемые
Язык субтитров: Русский, Английский
Качество видео: BDRemux
Контейнер: MKV
Видео: MPEG4-AVC (h264), 1920x1080, ~ 20992 kbps, 23.976 fps
Аудио 1: Русский DTS-HD MA 2.0, 943 kbps (DTS Core: 2.0 ,768 kbps) - ( Многоголосый закадровый, R5)
Аудио 2: Русский AC3 2.0, 192 kbps - (авторский одноголосый, А.Мишин)
Аудио 3: Украинский AC3 2.0, 192 kbps - (Двухголосый закадровый)
Аудио 4: Английский DTS 2.0, 768 kbps
Аудио 5: Французский DTS-HD MA 2.0, 1600 kbps (DTS Core: 2.0, 1509 kbps,16-bit)

MediaInfo

Complete name : Emmanuelle.L’antivierge.(1975).BDRemux.mkv
Format : Matroska
Format version : Version 2
File size : 15.7 GiB
Duration : 1h 31mn
Overall bit rate mode : Variable
Overall bit rate : 24.6 Mbps
Movie name : Emmanuelle: L’antivierge.(1975).BDRemux
Encoded date : UTC 2013-12-21 16:49:09
Writing application : mkvmerge v5.7.0 ('The Whirlwind') built on Jul 8 2012 20:08:51
Writing library : libebml v1.2.3 + libmatroska v1.3.0
Video
ID : 1
Format : AVC
Format/Info : Advanced Video Codec
Format profile : [url=mailto:[email protected]][email protected][/url]
Format settings, CABAC : Yes
Format settings, ReFrames : 4 frames
Codec ID : V_MPEG4/ISO/AVC
Duration : 1h 31mn
Bit rate mode : Variable
Maximum bit rate : 33.0 Mbps
Width : 1 920 pixels
Height : 1 080 pixels
Display aspect ratio : 16:9
Frame rate mode : Constant
Frame rate : 23.976 fps
Color space : YUV
Chroma subsampling : 4:2:0
Bit depth : 8 bits
Scan type : Progressive
Title : Emmanuelle: L’antivierge.(1975).BDRemux
Language : French
Default : No
Forced : No
Audio #1
ID : 2
Format : DTS
Format/Info : Digital Theater Systems
Format profile : MA / Core
Mode : 16
Format settings, Endianness : Big
Codec ID : A_DTS
Duration : 1h 31mn
Bit rate mode : Variable
Bit rate : Unknown / 768 Kbps
Channel(s) : 2 channels
Channel positions : Front: L R
Sampling rate : 48.0 KHz
Bit depth : 16 bits
Compression mode : Lossless / Lossy
Title : DTS-HD MA 2.0 @ 943 kbps - MVO, R5
Language : Russian
Default : Yes
Forced : No
Audio #2
ID : 3
Format : AC-3
Format/Info : Audio Coding 3
Mode extension : CM (complete main)
Format settings, Endianness : Big
Codec ID : A_AC3
Duration : 1h 31mn
Bit rate mode : Constant
Bit rate : 192 Kbps
Channel(s) : 2 channels
Channel positions : Front: L R
Sampling rate : 48.0 KHz
Bit depth : 16 bits
Compression mode : Lossy
Stream size : 126 MiB (1%)
Title : AC3 2.0 @ 192 kbps - AVO, А. Мишин
Language : Russian
Default : No
Forced : No
Audio #3
ID : 4
Format : AC-3
Format/Info : Audio Coding 3
Mode extension : CM (complete main)
Format settings, Endianness : Big
Codec ID : A_AC3
Duration : 1h 31mn
Bit rate mode : Constant
Bit rate : 192 Kbps
Channel(s) : 2 channels
Channel positions : Front: L R
Sampling rate : 48.0 KHz
Bit depth : 16 bits
Compression mode : Lossy
Stream size : 126 MiB (1%)
Title : AC3 2.0 @ 192 kbps - DVO
Language : Ukrainian
Default : No
Forced : No
Audio #4
ID : 5
Format : DTS
Format/Info : Digital Theater Systems
Mode : 16
Format settings, Endianness : Big
Codec ID : A_DTS
Duration : 1h 31mn
Bit rate mode : Constant
Bit rate : 768 Kbps
Channel(s) : 2 channels
Channel positions : Front: L R
Sampling rate : 48.0 KHz
Bit depth : 16 bits
Compression mode : Lossy
Stream size : 502 MiB (3%)
Title : DTS 2.0 @ 768 kbps - Dub
Language : English
Default : No
Forced : No
Audio #5
ID : 6
Format : DTS
Format/Info : Digital Theater Systems
Format profile : MA / Core
Mode : 16
Format settings, Endianness : Big
Codec ID : A_DTS
Duration : 1h 31mn
Bit rate mode : Variable
Bit rate : Unknown / 1 509 Kbps
Channel(s) : 2 channels
Channel positions : Front: L R
Sampling rate : 48.0 KHz
Bit depth : 24 bits
Compression mode : Lossless / Lossy
Title : DTS-HD MA 2.0 @ 91600 kbps - Original
Language : French
Default : No
Forced : No
Text #1
ID : 7
Format : UTF-8
Codec ID : S_TEXT/UTF8
Codec ID/Info : UTF-8 Plain Text
Language : Russian
Default : No
Forced : No
Text #2
ID : 8
Format : UTF-8
Codec ID : S_TEXT/UTF8
Codec ID/Info : UTF-8 Plain Text
Language : English
Default : No
Forced : No
Menu
00:00:00.000 : en:00:00:00.000
00:05:55.355 : en:00:05:55.355
00:12:00.678 : en:00:12:00.678
00:18:04.333 : en:00:18:04.333
00:26:11.236 : en:00:26:11.236
00:31:43.944 : en:00:31:43.944
00:36:00.325 : en:00:36:00.325
00:42:01.936 : en:00:42:01.936
00:47:56.332 : en:00:47:56.332
00:56:26.883 : en:00:56:26.883
01:05:05.527 : en:01:05:05.527
01:07:26.167 : en:01:07:26.167
01:11:47.345 : en:01:11:47.345
01:17:49.582 : en:01:17:49.582
01:23:45.437 : en:01:23:45.437
01:29:38.456 : en:01:29:38.456
Скриншоты:

Время раздачи: 6:00 до 00:00 (До 10 скачавших)
Яндекс.Метрика
Рейтинг@Mail.ru