Денис Кульбацкий - Обучающий видеокурс создание музыки в FL Studio с нуля (2012) WEBRip

 

Создавать темы 06-Окт-2013 03:48

Автор (режиссер): Денис Кульбацкий (MOT!V)
Название: Создание музыки в FL Studio с нуля
Год выпуска: 2012
Жанр: Обучающие видеокурсы
Продолжительность: 01:10:45
Описание:
Видеокурс для начинающих "Создание музыки в FL Studio 10 с нуля" — это авторская раздача от Дениса Кульбацкого (псевдоним MOT!V), который делится своим опытом создания электронной музыки с помощью программы FL Studio 10. Прослушав этот курс, каждый может писать собственную музыку и создавать интересные ремиксы. Особого таланта, как уверяет автор, для этого не требуется, было бы желание, настойчивость и упорство.
Качество видео: PCRec
Видеокодек: AVC
Битрейт видео: ~25fps 1760kbps
Размер кадра: 1280x720
Аудиокодек: AAC
Битрейт аудио: 44100Hz stereo 191kbps

Содержание курса:

Урок 1. Введение: выбор компьютера и аудиокарты
О чём этот курс и для кого
Почему курс об FL Studio 10
Какой конфигурации компьютера хватит для написания музыки
Аудиокарты
Урок 2. Главный инструмент музыканта
Берегите уши — главный инструмент музыканта
Плюсы и минусы мониторов
Плюсы и минусы наушников
Урок 3. Интерфейс FL Studio. Семплы и плагины
Как выглядит готовый проект
Знакомство с FL Studio
Что такое секвенсор и MIDI
Паттерны
Сэмплы и лупы
bpm — количество ударов в минуту
Синтезаторы и плагины
Урок 4. Создание бита: степ-секвенсор
Степ-секвенсор
Настройки программы FL Studio
Пишем бит
Урок 5. Аранжировка: Piano Roll, Playlist
Piano Roll
Пишем бас
Project picker
Плейлист
Урок 6. Сведение трека: принципы и инструменты
Микшер
Эквализация
Компрессия
Реверберация и пространство в треке
Урок 7. Завершение трека
Plugin Picker и виды эффектов
Мастеринг
Автоматизация
Экспорт в mp3
Урок 8. Основные ошибки начинающих
Основные ошибки начинающих музыкантов
Об авторе
Спасибо

MediaInfo:

Общее
Полное имя: D:АндрейСоздание музыки с нуля
Формат: MPEG-4
Профиль формата: Base Media / Version 2
Идентификатор кодека: mp42
Размер файла: 116 Мбайт
Режим общего битрейта: Переменный
Общий поток: 1957 Кбит/сек
Дата кодирования: UTC 2012-01-29 11:14:41
Дата пометки: UTC 2012-01-29 11:14:41
Видео
Идентификатор: 2
Формат: AVC
Формат/Информация: Advanced Video Codec
Профиль формата: [email protected]
Параметр CABAC формата: Да
Параметр ReFrames формата: 2 кадра
Параметр GOP формата: M=2, N=13
Режим смешивания: Container [email protected]
Идентификатор кодека: avc1
Идентификатор кодека/Информация: Advanced Video Coding
Вид битрейта: Переменный
Битрейт: 1760 Кбит/сек
Максимальный битрейт: 16,0 Мбит/сек
Ширина: 1280 пикселей
Высота: 720 пикселей
Соотношение сторон: 16:9
Режим частоты кадров: Постоянный
Частота кадров: 25,000 кадров/сек
Цветовое пространство: YUV
Субдискретизация насыщенности: 4:2:0
Битовая глубина: 8 бит
Тип развёртки: Прогрессивная
Бит/(Пиксели*Кадры): 0.076
Размер потока: 104 Мбайт (90%)
Язык: English
Дата кодирования: UTC 2012-01-29 11:14:41
Дата пометки: UTC 2012-01-29 11:14:41
Аудио
Идентификатор: 1
Формат: AAC
Формат/Информация: Advanced Audio Codec
Профиль формата: LC
Идентификатор кодека: 40
Вид битрейта: Постоянный
Битрейт: 192 Кбит/сек
Каналы: 2 канала
Расположение каналов: Front: L R
Частота: 44,1 КГц
Метод сжатия: С потерями
Задержка видео: 40 мс.
Размер потока: 11,4 Мбайт (10%)
Язык: English
Дата кодирования: UTC 2012-01-29 11:14:41
Дата пометки: UTC 2012-01-29 11:14:41

Скриншоты

Яндекс.Метрика
Рейтинг@Mail.ru