Viasat History: Восточная Пруссия Гитлера / Hitler's East Prussia [серии 1-2 из 2] (Florian Huber) [2008 г., Документальный, история, SATRip]

 

Создавать темы 02-Дек-2015 20:43

-Viasat History: Восточная Пруссия Гитлера / Hitler's East Prussia [серии 1-2 из 2]- Год выпуска: 2008
Страна: Германия, LOOKS Film & TV GmbH
Жанр: Документальный, история
Продолжительность: 2x~00:42:50
Перевод: Профессиональный (одноголосый)
Режиссер: Florian Huber-Описание:-Восточная Пруссия – провинция, которая располагалась вдоль юго-восточного берега Балтики, была известна своим благородством и величием. Однако вскоре ее столица Кёнигсберг, будучи духовным центром, направляет свой взор в сторону нового пророка – Адольфа Гитлера. Национальный социализм захватывает Восточную Пруссию, в результате чего доведенные до нищеты фермеры получают надежду на помощь. Разочарование в Веймарской республике также ведет к тому, что высшее дворянство встает на сторону Гитлера. В результате провинция погружается в водоворот террора и войны.-Список серий:-01. Восточный бастион / Bollwerk im Osten
02. Родина и её утрата / Heimat und Verlust
-Доп. информация: Перевод Инессы Иванчиковой, текст читает Юрий Большаков-Качество: SATRip
Контейнер: AVI
Видео кодек: XviD
Аудио кодек: AC3
Видео: 704x400 25fps 1800 kbps
Аудио: AC3 2ch, 48kHz, 192 kbps-

MediaInfo

Format : AVI
Format/Info : Audio Video Interleave
File size : 611 MiB
Duration : 42mn 49s
Overall bit rate : 1 994 Kbps
Writing application : TMPGEnc Video Mastering Works 5 Version. 5.0.6.38
Writing library : TMPGEnc Video Mastering Works 5 Version. 5.0.6.38
Video
ID : 0
Format : MPEG-4 Visual
Format profile : Advanced [email protected]
Format settings, BVOP : 2
Format settings, QPel : No
Format settings, GMC : No warppoints
Format settings, Matrix : Default (H.263)
Muxing mode : Packed bitstream
Codec ID : XVID
Codec ID/Hint : XviD
Duration : 42mn 49s
Bit rate : 1 795 Kbps
Width : 704 pixels
Height : 400 pixels
Display aspect ratio : 16:9
Frame rate : 25.000 fps
Color space : YUV
Chroma subsampling : 4:2:0
Bit depth : 8 bits
Scan type : Progressive
Compression mode : Lossy
Bits/(Pixel*Frame) : 0.255
Stream size : 550 MiB (90%)
Writing library : XviD 73
Audio
ID : 1
Format : AC-3
Format/Info : Audio Coding 3
Mode extension : CM (complete main)
Format settings, Endianness : Big
Codec ID : 2000
Duration : 42mn 49s
Bit rate mode : Constant
Bit rate : 192 Kbps
Channel(s) : 2 channels
Channel positions : Front: L R
Sampling rate : 48.0 KHz
Bit depth : 16 bits
Compression mode : Lossy
Stream size : 58.8 MiB (10%)
Alignment : Aligned on interleaves
Interleave, duration : 240 ms (6.00 video frames)
Interleave, preload duration : 224 ms
-Скриншоты--Благодарность за предоставленный рип: -Время раздачи: 24/7 (круглосуточно)-
Яндекс.Метрика
Рейтинг@Mail.ru