Любовь / Love (2015,драма, мелодрама) HDRip-AVC | L1

 

Создавать темы 30-Ноя-2015 06:07

--Любовь / Love (2015) HDRip-AVC --Название: Любовь
Оригинальное название: Love
Год выпуска: 2015
Страна: Франция, Бельгия
Жанр: драма, мелодрама-Перевод: Любительский (одноголосый) [VANO]
Продолжительность: 02:09:27--Режиссер: Гаспар Ноэ--В ролях: Аоми Муйок (Electra), Карл Глусман (Murphy), Клара Кристин (Omi), Ugo Fox (Gaspar), Хуан Сааведра (Julio), Aaron Pages (Noe), Isabelle Nicou (Nora), Бенуа Деби (Yuyo), Венсан Мараваль (Castel), Дебора Реви (Paula), Xamira Zuloaga (Lucile), Стелла Роча (Mami)--Описание:
Любовь вне добра и зла. Любовь - это генетическая потребность. Это дар и проклятие. Любовь - это болезнь, наркотик. Это потеря и обретение себя. Любовь - это самое прекрасное и самое ужасное в нашей жизни. Любовь - это переплетение душ и соединение тел. «Любовь» - это возбуждающая сексуальная мелодрама о парне, девушке и еще одной девушке.--Рейтинг:
-Качество: HDRip-AVC
Формат: MKV
Видео: AVC, 1024x430 (2.40:1), 1230 kbps, 25 fps, 0,112 bpp
Аудио: русский / AC3 / 5.1 / 48 kHz / 384 kbps / 16 bit ||
Семпл-

МедиаИнфо

General
Unique ID : 197638744810914479438018100051888980332 (0x94AFD6723667C24684082EA78FBA416C)
Complete name : D:ТорентыРаздачиЛюбовь.2015.HDRip-AVC. R.G. Resident_pb.mkv
Format : Matroska
Format version : Version 4 / Version 2
File size : 1.46 GiB
Duration : 2h 9mn
Overall bit rate : 1 615 Kbps
Movie name : R.G. Resident_pb.wtf
Encoded date : UTC 2015-11-29 20:54:57
Writing application : mkvmerge v6.7.0 ('Back to the Ground') 64bit built on Jan 8 2014 15:10:52
Writing library : libebml v1.3.0 + libmatroska v1.4.1
Attachment : Yes
Video
ID : 1
Format : AVC
Format/Info : Advanced Video Codec
Format profile : [email protected]
Format settings, CABAC : Yes
Format settings, ReFrames : 4 frames
Codec ID : V_MPEG4/ISO/AVC
Duration : 2h 9mn
Bit rate : 1 230 Kbps
Width : 1 024 pixels
Height : 430 pixels
Display aspect ratio : 2.40:1
Frame rate : 25.000 fps
Color space : YUV
Chroma subsampling : 4:2:0
Bit depth : 8 bits
Scan type : Progressive
Bits/(Pixel*Frame) : 0.112
Stream size : 1.08 GiB (74%)
Title : R.G. Resident_pb.wtf
Writing library : x264 core 146 r2538 121396c
Encoding settings : cabac=1 / ref=4 / deblock=1:-2:-2 / analyse=0x3:0x113 / me=umh / subme=9 / psy=1 / psy_rd=1.00:0.00 / mixed_ref=1 / me_range=16 / chroma_me=1 / trellis=2 / 8x8dct=1 / cqm=0 / deadzone=21,11 / fast_pskip=0 / chroma_qp_offset=-2 / threads=6 / lookahead_threads=1 / sliced_threads=0 / nr=0 / decimate=0 / interlaced=0 / bluray_compat=0 / constrained_intra=0 / bframes=7 / b_pyramid=2 / b_adapt=2 / b_bias=0 / direct=3 / weightb=1 / open_gop=0 / weightp=2 / keyint=250 / keyint_min=25 / scenecut=40 / intra_refresh=0 / rc_lookahead=60 / rc=2pass / mbtree=0 / bitrate=1230 / ratetol=1.0 / qcomp=0.60 / qpmin=0 / qpmax=69 / qpstep=4 / cplxblur=20.0 / qblur=0.5 / vbv_maxrate=14000 / vbv_bufsize=14000 / nal_hrd=none / filler=0 / ip_ratio=1.40 / pb_ratio=1.30 / aq=1:0.80
Language : Russian
Default : Yes
Forced : No
Audio
ID : 2
Format : AC-3
Format/Info : Audio Coding 3
Mode extension : CM (complete main)
Codec ID : A_AC3
Duration : 2h 9mn
Bit rate mode : Constant
Bit rate : 384 Kbps
Channel(s) : 6 channels
Channel positions : Front: L C R, Side: L R, LFE
Sampling rate : 48.0 KHz
Bit depth : 16 bits
Compression mode : Lossy
Stream size : 356 MiB (24%)
Language : Russian
Default : Yes
Forced : No

Скриншоты

Яндекс.Метрика
Рейтинг@Mail.ru