Близкое расстояние / Close Range (2015) WEB-DL 720p | L2

 

Создавать темы 27-Ноя-2015 22:39

Близкое расстояние / Close RangeГод выхода: 2015
Жанр: боевик, криминал
Режиссер: Айзек Флорентайн
В ролях:
Скотт Эдкинс, Ник Чинланд, Кэйтлин Китс, Джэйк Ла Ботц, Тони Перес, Мэдисон Лоулор, Хулиен Цезарио, Джимми Чхиу, Рэй Диас, Роберт Дилл
О фильме:
Вызволив свою племянницу из лап могущественного картеля, Колтон Макреди вступает в беспощадный бой во имя спасения членов собственной семьи, ставших теперь мишенями для преступников. Его ферму, расположенную в провинциальной глубинке, осаждают жаждущие мести наёмники картеля, прихватившие с собой продажного местного шерифа с командой помощников, которые обеспечат гарантию того, что в ближайшее время к Макреди помощь не прибудет. Начинается безостановочный и методичный штурм фермы, и Колтону ради защиты своих близких и собственного спасения предстоит до конца пройти этот «марафон на выживание».


Выпущено: США / Bleiberg Entertainment, Compound B, Entropy, Underdogg Entertainment
Продолжительность: 01:21:55
Озвучивание: Любительское (двухголосое) [Parovoz Production]
Файл
Формат: MKV
Качество: WEB-DL 720p
Видео: MPEG-4 AVC, 4767 kb/s, 1280x720
Аудио: Russian / English: AC3, 192 kb/s (2 ch)

MI

Format                         : Matroska
Format version                 : Version 2
File size                      : 2.88 GiB
Duration                       : 1h 21mn
Overall bit rate               : 5 036 Kbps
Encoded date                   : UTC 2015-11-27 01:57:56
Writing application            : mkvmerge v7.8.0 ('River Man') 32bit built on Apr  3 2015 12:11:22
Writing library                : libebml v1.3.1 + libmatroska v1.4.2
Video
ID                             : 1
Format                         : AVC
Format/Info                    : Advanced Video Codec
Format profile                 : [email protected]
Format settings, CABAC         : Yes
Format settings, ReFrames      : 4 frames
Codec ID                       : V_MPEG4/ISO/AVC
Duration                       : 1h 21mn
Bit rate                       : 4 767 Kbps
Width                          : 1 280 pixels
Height                         : 720 pixels
Display aspect ratio           : 16:9
Frame rate mode                : Constant
Frame rate                     : 25.000 fps
Color space                    : YUV
Chroma subsampling             : 4:2:0
Bit depth                      : 8 bits
Scan type                      : Progressive
Bits/(Pixel*Frame)             : 0.207
Stream size                    : 2.60 GiB (90%)
Writing library                : x264 core 130 r2273 b3065e6
Encoding settings              : cabac=1 / ref=1 / deblock=1:0:0 / analyse=0x3:0x113 / me=hex / subme=2 / psy=1 / psy_rd=1.00:0.00 / mixed_ref=0 / me_range=16 / chroma_me=1 / trellis=0 / 8x8dct=1 / cqm=0 / deadzone=21,11 / fast_pskip=1 / chroma_qp_offset=0 / threads=6 / lookahead_threads=2 / sliced_threads=0 / nr=0 / decimate=1 / interlaced=0 / bluray_compat=0 / constrained_intra=0 / bframes=3 / b_pyramid=2 / b_adapt=1 / b_bias=0 / direct=1 / weightb=1 / open_gop=0 / weightp=1 / keyint=250 / keyint_min=25 / scenecut=40 / intra_refresh=0 / rc_lookahead=10 / rc=abr / mbtree=1 / bitrate=4767 / ratetol=1.0 / qcomp=0.60 / qpmin=0 / qpmax=69 / qpstep=4 / vbv_maxrate=62500 / vbv_bufsize=78125 / nal_hrd=none / ip_ratio=1.40 / aq=1:1.00
Language                       : English
Default                        : Yes
Forced                         : No
Color range                    : Limited
Color primaries                : BT.709
Transfer characteristics       : BT.709
Matrix coefficients            : BT.709
Audio #1
ID                             : 2
Format                         : AC-3
Format/Info                    : Audio Coding 3
Mode extension                 : CM (complete main)
Format settings, Endianness    : Big
Codec ID                       : A_AC3
Duration                       : 1h 21mn
Bit rate mode                  : Constant
Bit rate                       : 192 Kbps
Channel(s)                     : 2 channels
Channel positions              : Front: L R
Sampling rate                  : 48.0 KHz
Bit depth                      : 16 bits
Compression mode               : Lossy
Stream size                    : 112 MiB (4%)
Language                       : Russian
Default                        : Yes
Forced                         : No
Audio #2
ID                             : 3
Format                         : AC-3
Format/Info                    : Audio Coding 3
Mode extension                 : CM (complete main)
Format settings, Endianness    : Big
Codec ID                       : A_AC3
Duration                       : 1h 21mn
Bit rate mode                  : Constant
Bit rate                       : 192 Kbps
Channel(s)                     : 2 channels
Channel positions              : Front: L R
Sampling rate                  : 48.0 KHz
Bit depth                      : 16 bits
Compression mode               : Lossy
Stream size                    : 112 MiB (4%)
Language                       : English
Default                        : No
Forced                         : No
Menu
00:00:00.000                   : en:Chapter 1
00:08:48.000                   : en:Chapter 2
00:13:27.000                   : en:Chapter 3
00:19:45.040                   : en:Chapter 4
00:27:29.000                   : en:Chapter 5
00:34:30.040                   : en:Chapter 6
00:42:38.040                   : en:Chapter 7
00:47:19.000                   : en:Chapter 8
00:54:07.000                   : en:Chapter 9
01:01:29.040                   : en:Chapter 10
01:08:29.000                   : en:Chapter 11
01:16:23.040                   : en:Chapter 12

Скриншоты:

Яндекс.Метрика
Рейтинг@Mail.ru