Человек-муравей / Ant-Man (2015) HDRip-AVC | Лицензия

 

Создавать темы 27-Ноя-2015 22:32

Человек-муравей / Ant-ManГод выпуска: 2015
Жанр: Фантастика, боевик
Выпущено: США, Великобритания, Marvel Studios
Режиссер: Пейтон Рид
В ролях:
Пол Радд, Майкл Дуглас, Эванджелин Лилли, Кори Столл, Майкл Пенья, Бобби Каннавейл, Ти-Ай, Давид Дастмалчян, Эбби Райдер Фортсон, Джуди Грир, Энтони Маки, Вуд Харрис, Мартин Донован, Хейли Этвелл, Джон Слэттери, Гаррет Моррис, Нил Гамбургер, Род Халлетт, Джо Крест, Джо Букаро III
О фильме:
Уже прошло несколько десятков лет с того момента как выдающийся биохимик по имени Хэнк Пим совершил невероятное открытие. Хэнк смог создать специальный костюм, надев который, человек уменьшается в размерах до уровня муравья, но при этом вся мозговая деятельность остается той же, а сила увеличивается, ведь, как известно, муравьи могут поднимать предметы, которые весят больше них в несколько раз. В последствии, воодушевлённый своими открытиями и способностями, которые перед ним открывают эти изобретения, этот человек стал самым настоящим супер-героем, и начал свою собственную борьбу со злом. Но всё в этом мире изменилось: враги стали сильнее, борьба стала ещё более жестокой. Теперь он ищет того, кому смог бы передать свой секрет и оборудование, чтобы новые приемник продолжил это сложное и опасное дело. Испытать этот костюм берется хороший приятель доктора Пима, молодой парень, по имени Скотт Лэнг. У него есть кое-какие проблемы с законом, в его жизни было много трудностей, но у него доброе сердце и такой человек действительно достоин этой супер-силы. Под руководством изобретателя чудо-костюма, талантливого ученого Хэнка Пима, Скотт должен найти в себе силы стать настоящим героем и защитить мир от надвигающейся угрозы. Пим и Лэнг должны спланировать и устроить ограбление века, от которого зависит судьба человечества.

Файл
Качество: HDRip (AVC)
Видео: MPEG-4 AVC, 2694 Кбит/с, 1024x554, 23.976 кадр/с
Аудио: Русский, английский (AC3, 6 ch, 448 Кбит/с)
Размер: 2.94 ГБ
Продолжительность: 01:57:07
Перевод: Дублированный
Субтитры: Русские, английские
Озвучивание - Дублированное (iTunes Russia )
Сохранены оригинальные чаптеры.

x264

x264 [info]: frame I:1888  Avg QP:13.58  size: 94482
x264 [info]: frame P:46766 Avg QP:16.94  size: 25925
x264 [info]: frame B:119816 Avg QP:18.25  size:  8143
x264 [info]: consecutive B-frames:  6.0%  5.4% 10.5% 43.4% 12.2% 14.1%  2.5%  5.3%  0.3%  0.4%
x264 [info]: mb I  I16..4:  5.9% 73.5% 20.6%
x264 [info]: mb P  I16..4:  2.1% 13.1%  2.2%  P16..4: 28.7% 34.5% 10.6%  4.2%  0.4%    skip: 4.2%
x264 [info]: mb B  I16..4:  0.2%  1.3%  0.2%  B16..8: 33.0% 23.2%  4.1%  direct: 5.4%  skip:32.5%  L0:41.1% L1:46.6% BI:12.3%
x264 [info]: 8x8 transform intra:74.9% inter:50.0%
x264 [info]: direct mvs  spatial:97.2% temporal:2.8%
x264 [info]: coded y,uvDC,uvAC intra: 83.3% 81.9% 57.3% inter: 24.4% 21.8% 10.7%
x264 [info]: i16 v,h,dc,p: 13% 29%  3% 55%
x264 [info]: i8 v,h,dc,ddl,ddr,vr,hd,vl,hu:  9%  9%  6% 10% 13% 13% 14% 13% 14%
x264 [info]: i4 v,h,dc,ddl,ddr,vr,hd,vl,hu: 10% 12%  6%  9% 14% 13% 13% 10% 12%
x264 [info]: i8c dc,h,v,p: 37% 27% 18% 18%
x264 [info]: Weighted P-Frames: Y:13.0% UV:8.7%
x264 [info]: ref P L0: 50.2%  8.2% 18.0%  6.4%  5.4%  3.7%  3.2%  1.8%  1.5%  1.3%  0.4%  0.1%
x264 [info]: ref B L0: 75.7% 11.7%  4.7%  2.4%  2.6%  1.3%  1.0%  0.5%  0.2%
x264 [info]: ref B L1: 93.1%  6.9%
x264 [info]: kb/s:2694.24

Инфо-файл

Общее
Уникальный идентификатор                 : 221811057590637908020388772594732050773 (0xA6DF417ADD1AC37FAB3FFCC6B7B92955)
Полное имя                               : D:ЗагрузкиAnt.Man.2015.x264.HDRip.(AVC).ExKinoRay.mkv
Формат                                   : Matroska
Версия формата                           : Version 2
Размер файла                             : 2,94 Гбайт
Продолжительность                        : 1 ч. 57 м.
Общий поток                              : 3592 Кбит/сек
Название фильма                          : Человек-муравей.2015.Rip by: ollan
Дата кодирования                         : UTC 2015-11-27 15:25:53
Программа кодирования                    : mkvmerge v5.6.0 ('Kenya Kane') built on May 27 2012 16:44:04
Библиотека кодирования                   : libebml v1.2.3 + libmatroska v1.3.0
Видео
Идентификатор                            : 1
Формат                                   : AVC
Формат/Информация                        : Advanced Video Codec
Профиль формата                          : [email protected]
Параметр CABAC формата                   : Да
Параметр ReFrames формата                : 10 кадров
Идентификатор кодека                     : V_MPEG4/ISO/AVC
Продолжительность                        : 1 ч. 57 м.
Битрейт                                  : 2694 Кбит/сек
Ширина                                   : 1024 пикселя
Высота                                   : 554 пикселя
Соотношение сторон                       : 1,85:1
Режим частоты кадров                     : Постоянный
Частота кадров                           : 23,976 кадра/сек
Цветовое пространство                    : YUV
Субдискретизация насыщенности            : 4:2:0
Битовая глубина                          : 8 бит
Тип развёртки                            : Прогрессивная
Бит/(Пиксели*Кадры)                      : 0.198
Размер потока                            : 2,15 Гбайт (73%)
Библиотека кодирования                   : x264 core 125 r2200 999b753
Настройки программы                      : cabac=1 / ref=10 / deblock=1:-3:-3 / analyse=0x3:0x133 / me=umh / subme=11 / psy=1 / psy_rd=1.00:0.00 / mixed_ref=1 / me_range=32 / chroma_me=1 / trellis=2 / 8x8dct=1 / cqm=0 / deadzone=21,11 / fast_pskip=0 / chroma_qp_offset=-2 / threads=12 / lookahead_threads=2 / sliced_threads=0 / nr=0 / decimate=0 / interlaced=0 / bluray_compat=0 / constrained_intra=0 / bframes=9 / b_pyramid=2 / b_adapt=2 / b_bias=0 / direct=3 / weightb=1 / open_gop=0 / weightp=2 / keyint=240 / keyint_min=23 / scenecut=40 / intra_refresh=0 / rc=2pass / mbtree=0 / bitrate=2694 / ratetol=1.0 / qcomp=0.60 / qpmin=0 / qpmax=69 / qpstep=4 / cplxblur=20.0 / qblur=0.5 / ip_ratio=1.40 / pb_ratio=1.30 / aq=1:1.00
Язык                                     : English
Default                                  : Да
Forced                                   : Нет
Аудио #1
Идентификатор                            : 2
Формат                                   : AC-3
Формат/Информация                        : Audio Coding 3
Расширение режима                        : CM (complete main)
Параметр Endianness формата              : Big
Идентификатор кодека                     : A_AC3
Продолжительность                        : 1 ч. 57 м.
Вид битрейта                             : Постоянный
Битрейт                                  : 448 Кбит/сек
Каналы                                   : 6 каналов
Расположение каналов                     : Front: L C R, Side: L R, LFE
Частота                                  : 48,0 КГц
Битовая глубина                          : 16 бит
Метод сжатия                             : С потерями
Размер потока                            : 375 Мбайт (12%)
Заголовок                                : Дублированный (Лицензия)
Язык                                     : Russian
Default                                  : Да
Forced                                   : Нет
Аудио #2
Идентификатор                            : 3
Формат                                   : AC-3
Формат/Информация                        : Audio Coding 3
Расширение режима                        : CM (complete main)
Параметр Endianness формата              : Big
Идентификатор кодека                     : A_AC3
Продолжительность                        : 1 ч. 57 м.
Вид битрейта                             : Постоянный
Битрейт                                  : 448 Кбит/сек
Каналы                                   : 6 каналов
Расположение каналов                     : Front: L C R, Side: L R, LFE
Частота                                  : 48,0 КГц
Битовая глубина                          : 16 бит
Метод сжатия                             : С потерями
Размер потока                            : 375 Мбайт (12%)
Язык                                     : English
Default                                  : Нет
Forced                                   : Нет
Текст #1
Идентификатор                            : 4
Формат                                   : UTF-8
Идентификатор кодека                     : S_TEXT/UTF8
Идентификатор кодека/Информация          : UTF-8 Plain Text
Заголовок                                : Forced
Язык                                     : Russian
Default                                  : Да
Forced                                   : Нет
Текст #2
Идентификатор                            : 5
Формат                                   : UTF-8
Идентификатор кодека                     : S_TEXT/UTF8
Идентификатор кодека/Информация          : UTF-8 Plain Text
Заголовок                                : Full
Язык                                     : Russian
Default                                  : Нет
Forced                                   : Нет
Текст #3
Идентификатор                            : 6
Формат                                   : UTF-8
Идентификатор кодека                     : S_TEXT/UTF8
Идентификатор кодека/Информация          : UTF-8 Plain Text
Заголовок                                : SDH
Язык                                     : English
Default                                  : Нет
Forced                                   : Нет
Меню
00:00:00.000                             : en:Chapter 01
00:02:08.837                             : en:Chapter 02
00:08:40.186                             : en:Chapter 03
00:15:24.841                             : en:Chapter 04
00:19:59.740                             : en:Chapter 05
00:27:50.210                             : en:Chapter 06
00:33:07.235                             : en:Chapter 07
00:38:53.957                             : en:Chapter 08
00:44:36.465                             : en:Chapter 09
00:49:22.459                             : en:Chapter 10
00:57:44.252                             : en:Chapter 11
01:00:48.812                             : en:Chapter 12
01:06:31.529                             : en:Chapter 13
01:23:21.288                             : en:Chapter 14
01:34:20.530                             : en:Chapter 15
01:47:34.239                             : en:Chapter 16

Скриншоты:

Яндекс.Метрика
Рейтинг@Mail.ru