[ Сегодня на трекере фрилич! Идет свободное скачивание без начисления Download ]

Последний мент (2015) SATRip комедия 1 сезон 1-13 из 24

 

Создавать темы 26-Ноя-2015 06:53

-ПОСЛЕДНИЙ МЕНТ-- Производство: Россия, Компания "5-й канал", Киногруппа «2ПЛАН2»
Жанр: комедия, приключения, детектив
Год выпуска: 2015 г.
Продолжительность: 45 минРежиссер: Михаил Жерневский-В ролях: Наталия Вдовина, Гоша Куценко, Полина Куценко, Анатолий Руденко, Сергей Удовик, Виктория Корлякова, Александр Борисов-Описание: Алексей Дивов приходит в себя в больнице и узнает, что пролежал в коме 20 лет. В далеком 1995 году он, капитан милиции получил ранение, следствием которого стала кома. Пока Алексей спал, мир сильно изменился. Милиция стала полицией, появились современные гаджеты, интернет и многое другое. Дочка выросла, а жена вышла замуж за другого-Качество видео: SATRip
Контейнер: AVI
Стандарт разрешения: 720p
Видео кодек: XviD
Аудио кодек: MP3
Видео: XviD, 1800 Кбит/сек, 720х400, 16:9 , 25,000 кадров/сек 8 бит, 0.250 Бит/Пиксел
Аудио: MP3, 2 ch, 128 Кбит/с
Cубтитры: отсутствуют

Media Info

Общее
Полное имя : ment_[pirat.ca]\01.serija.avi
Формат : AVI
Формат/Информация : Audio Video Interleave
Размер файла : 761 Мбайт
Продолжительность : 54 м.
Общий поток : 1938 Кбит/сек
Программа кодирования : VirtualDubMod 1.5.10.3 | www.virtualdub-fr.org || (build 2550/release)
Библиотека кодирования : VirtualDubMod build 2550/releaseВидео
Идентификатор : 0
Формат : MPEG-4 Visual
Профиль формата : Advanced [email protected]
Параметр BVOP формата : 2
Параметр QPel формата : Нет
Параметр GMC формата : Без точки перехода
Параметр матрицы формата : Default (MPEG)
Идентификатор кодека : XVID
Идентификатор кодека/Подсказка : XviD
Продолжительность : 54 м.
Битрейт : 1800 Кбит/сек
Ширина : 720 пикселей
Высота : 400 пикселей
Соотношение сторон : 16:9
Частота кадров : 25,000 кадров/сек
Цветовое пространство : YUV
Субдискретизация насыщенности : 4:2:0
Битовая глубина : 8 бит
Тип развёртки : Прогрессивная
Метод сжатия : С потерями
Бит/(Пиксели*Кадры) : 0.250
Размер потока : 707 Мбайт (93%)
Библиотека кодирования : XviD 1.2.1 (UTC 2008-12-04)Аудио
Идентификатор : 1
Формат : MPEG Audio
Версия формата : Version 1
Профиль формата : Layer 3
Режим : Joint stereo
Расширение режима : MS Stereo
Идентификатор кодека : 55
Идентификатор кодека/Подсказка : MP3
Продолжительность : 54 м.
Вид битрейта : Постоянный
Битрейт : 128 Кбит/сек
Каналы : 2 канала
Частота : 48,0 КГц
Метод сжатия : С потерями
Размер потока : 50,3 Мбайт (7%)
Выравнивание : Соединение по промежуткам
Продолжительность промежутка : 40 мс. (1,00 видеокадр)
Время предзагрузки промежутка : 504 мс.
Библиотека кодирования : LAME3.99r
Настройки программы : -m j -V 4 -q 9 -lowpass 17 -b 128

Скриншоты

Яндекс.Метрика
Рейтинг@Mail.ru