Ходячие мертвецы / The Walking Dead / Сезон: 6 / Серии: 1-7 (16) (Грег Никотеро / Greg Nicotero, ...) [2015 г., ужасы, триллер, драма, WEB-DL, 1080p] MVO (LostFilm, FOX) + Original (Eng) + Sub (Eng) [Обновляемая]

 

Создавать темы 26-Ноя-2015 06:50

-Ходячие мертвецы / The Walking Dead
«Fight the dead. Fear the living»
(6 сезон)
-- Производство: США | AMC
Жанр: ужасы, триллер, драма
Год выпуска: 2015 г.
Продолжительность: 7x ~00:43:00Перевод: Профессиональный (многоголосый, закадровый) [LostFilm]
Перевод 2: Профессиональный (многоголосый, закадровый) [FOX]
Оригинальный аудиопоток: английскийРежиссер: Грег Никотеро / Greg Nicotero, Эрнест Р. Дикерсон / Ernest R. Dickerson, Гай Ферленд / Guy Ferland, ...-В ролях: Эндрю Линкольн, Норман Ридус, Стивен Ян, Лорен Кохэн, Чендлер Риггз, Данай Гурира, Мелисса МакБрайд, Майкл Кадлиц, Ленни Джеймс, Сонекуа Мартин-Грин-Описание: «Ходячие мертвецы» — постапокалиптический телесериал, реализованный Фрэнком Дарабонтом на основе одноимённой серии комиксов, созданной Робертом Киркманом, Тони Муром и Чарли Адлардом.
В центре сюжета история жизни семьи шерифа после того, как зомби-эпидемия апокалиптических масштабов захлестнула земной шар. Шериф Рик Граймс путешествует со своей семьей и небольшой группой выживших в поисках безопасного места для жизни. Но постоянный страх смерти каждый день приносит тяжелые потери, заставляя героев почувствовать глубины человеческой жестокости. Рик пытается спасти свою семью и открывает для себя, что всепоглощающий страх тех, кто выжил, может быть опаснее бессмысленных мертвецов, бродящих по земле.- - -Качество видео: WEB-DL
Контейнер: MKV
Стандарт разрешения: 1080p
Видео кодек: H.264/AVC
Аудио кодек: AC3
Видео: 1916×1076 at 23.976 fps, ~5000 kbps avg
Аудио: Russian: 48 kHz, AC3, 3/2 (L,C,R,l,r) + LFE ch, ~384.00 kbps avg |Многоголосый закадровый, LostFilm|
Аудио #2: Russian: 48 kHz, AC3, 2.0 (L,R) ch, ~192.00 kbps avg |Многоголосый закадровый, FOX HD|
Аудио #3: English: 48 kHz, AC3, 3/2 (L,C,R,l,r) + LFE ch, ~384.00 kbps avgCубтитры: English

Список серий

01: First Time Again / Снова, как в первый раз
02: JSS / Выживи любой ценой
03: Thank You / Спасибо
04: Here's Not Here / Неважно, где
05: Now / Сейчас
06: Always Accountable / Всегда в ответе за свой выбор
07: Heads Up / Берегись!

Media Info

Код:
General
Unique ID                   : 183053020913293276596977004889679274279 (0x89B6BABC7F641E3590AAC15AB7772127)
Complete name               : X:\Uploads\Pirat.Ca\The Walking Dead - Season 06 (2015)[1080p.WEB-DL.Rus.Eng]\The.Walking.Dead.S06E01.1080p.WEB-DL.2xRus.Eng.HDCLUB.mkv
Format                      : Matroska
Format version              : Version 2
File size                   : 2.76 GiB
Duration                    : 1h 4mn
Overall bit rate            : 6 111 Kbps
Movie name                  : The Walking Dead | Season 6 (2015-2016) | 01 - First Time Again (Release for HDCLUB)
Encoded date                : UTC 2015-10-19 19:31:27
Writing application         : mkvmerge v8.3.0 ('Over the Horizon') 64bit
Writing library             : libebml v1.3.1 + libmatroska v1.4.2Video
ID                          : 1
Format                      : AVC
Format/Info                 : Advanced Video Codec
Format profile              : [email protected]
/*  */
Format settings, CABAC      : Yes
Format settings, ReFrames   : 4 frames
Codec ID                    : V_MPEG4/ISO/AVC
Duration                    : 1h 4mn
Bit rate                    : 5 030 Kbps
Width                       : 1 916 pixels
Height                      : 1 076 pixels
Display aspect ratio        : 16:9
Frame rate mode             : Constant
Frame rate                  : 23.976 fps
Color space                 : YUV
Chroma subsampling          : 4:2:0
Bit depth                   : 8 bits
Scan type                   : Progressive
Bits/(Pixel*Frame)          : 0.102
Stream size                 : 2.27 GiB (82%)
Title                       : The Walking Dead | Season 6 (2015-2016) | 01 - First Time Again (Снова, как в первый раз)
Language                    : English
Default                     : Yes
Forced                      : No
Color primaries             : BT.709
Transfer characteristics    : BT.709
Matrix coefficients         : BT.709
Color range                 : LimitedAudio #1
ID                          : 2
Format                      : AC-3
Format/Info                 : Audio Coding 3
Mode extension              : CM (complete main)
Format settings, Endianness : Big
Codec ID                    : A_AC3
Duration                    : 1h 4mn
Bit rate mode               : Constant
Bit rate                    : 384 Kbps
Channel(s)                  : 6 channels
Channel positions           : Front: L C R, Side: L R, LFE
Sampling rate               : 48.0 KHz
Bit depth                   : 16 bits
Compression mode            : Lossy
Stream size                 : 178 MiB (6%)
Title                       : DD 5.1 @ 384 kbps (LostFilm)
Language                    : Russian
Default                     : Yes
Forced                      : NoAudio #2
ID                          : 3
Format                      : AC-3
Format/Info                 : Audio Coding 3
Mode extension              : CM (complete main)
Format settings, Endianness : Big
Codec ID                    : A_AC3
Duration                    : 1h 4mn
Bit rate mode               : Constant
Bit rate                    : 192 Kbps
Channel(s)                  : 2 channels
Channel positions           : Front: L R
Sampling rate               : 48.0 KHz
Bit depth                   : 16 bits
Compression mode            : Lossy
Stream size                 : 88.9 MiB (3%)
Title                       : DD 2.0 @ 192 kbps (FOX HD)
Language                    : Russian
Default                     : No
Forced                      : NoAudio #3
ID                          : 4
Format                      : AC-3
Format/Info                 : Audio Coding 3
Mode extension              : CM (complete main)
Format settings, Endianness : Big
Codec ID                    : A_AC3
Duration                    : 1h 4mn
Bit rate mode               : Constant
Bit rate                    : 384 Kbps
Channel(s)                  : 6 channels
Channel positions           : Front: L C R, Side: L R, LFE
Sampling rate               : 48.0 KHz
Bit depth                   : 16 bits
Compression mode            : Lossy
Stream size                 : 178 MiB (6%)
Title                       : DD 5.1 @ 384 kbps
Language                    : English
Default                     : No
Forced                      : NoText
ID                          : 5
Format                      : UTF-8
Codec ID                    : S_TEXT/UTF8
Codec ID/Info               : UTF-8 Plain Text
Language                    : English
Default                     : No
Forced                      : No

Скриншот c названием фильма

Скриншоты

Внимание! Раздача ведётся путём добавления новых серий!

Раздача ведётся путём добавления новых серий; при каждом добавлении создаётся новый торрент.
Чтобы начать докачку новой серии, пользователям необходимо сделать следующее:
1. остановить скачивание,
2. удалить старый торрент у себя из клиента (старые серии удалять не надо),
3. скачать новый торрент и запустить его у себя в клиенте вместо старого, при этом указать клиенту путь в старую папку, куда и должно происходить скачивание новых серий.
Ваш клиент при этом должен произвести хеширование (проверку) старой папки (если не производит сам - помогите ему сделать это), и будет докачивать только те серии которых у вас ещё нет. Старые серии при этом не удаляются, а продолжают раздаваться!
Eсли вы уже удалили старые серии, то предотвратить повторную закачку старых серий можно, отжав галочку в соответствующих местах при запуске нового торрента. По возможности, желательно не удалять старые серии как можно дольше, чтобы релизёр не столько продолжал раздавать старые серии, а смог сконцентрироваться на новых.
Совет для тех, кто не хочет ждать перехеширования:
Создайте ещё одну папку рядом с папкой сериала (рядом, а не в ней!!!). Каждую новую серию после удачной загрузки копируйте в новую папку так чтобы ваша основная папка всегда была пуста. Когда ваш новый торрент предложит вам закачать все файлы, выберете только последнюю. Для сидирования же укажите адрес новой папки.
Как закачать отдельный файл из торрента или докачать ранее пропущенные файлы торрента!
Яндекс.Метрика
Рейтинг@Mail.ru