Терминатор: Генезис / Terminator Genisys (Алан Тейлор / Alan Taylor) [2015 г., фантастика, боевик, триллер, BDRip-AVC] AVO (Гаврилов, Володарский)

 

Создавать темы 24-Ноя-2015 05:51

Терминатор: Генезис / Terminator Genisys
Год выпуска: 2015
Производство: США, Paramount Pictures, Skydance Productions, Centroid Motion Capture
Жанр: фантастика, боевик, триллер
Продолжительность: 02:05:43Перевод: Авторский (одноголосый, закадровый) Андрей Гаврилов
Перевод 2: Авторский (одноголосый, закадровый) Леонид Володарский
Субтитры: отсутствуютРежиссер: Алан Тейлор / Alan TaylorВ ролях: Арнольд Шварценеггер, Джейсон Кларк, Эмилия Кларк, Джай Кортни, Дж.К. Симмонс, Дайо Окенийи, Мэтт Смит, Кортни Б. Вэнс, Бён Хон Ли, Майкл Глэдис, Сандрин ХолтОписание: Когда Джон Коннор, лидер сопротивления, посылает сержанта Кайла Риза назад в 1984 год, чтобы защитить Сару Коннор и спасти будущее, неожиданный поворот событий создает разлом во времени. Сержант Риз оказывается в новой, незнакомой версии прошлого, где он встречает неожиданных союзников, в том числе Терминатора, новых опасных врагов, и новую миссию: изменить будущее…Сэмпл , , КиноПоискКачество видео: BDRip-AVC
Контейнер: MKV
Видео кодек: H.264
Аудио кодек: AC3
Видео: AVC, 1846 Кбит/с, 1060x444, 23.976fps
Аудио : 48 kHz, AC3 Dolby Digital, 6ch, ~640 kbps - А.Гаврилов
Аудио #2: 48 kHz, AC3 Dolby Digital, 6ch, ~640 kbps - Л.Володарский

Media Info

Общее
Уникальный идентификатор : 248539581584808813115897909519227764095 (0xBAFAFB74FEF359D189FD07322A0F3D7F)
Полное имя : D:\Все мое\фильмы\Terminator.Genisys.(Gavrilov,Volodarsky).mkv
Формат : Matroska
Версия формата : Version 2
Размер файла : 2,74 Гбайт
Продолжительность : 2 ч. 5 м.
Общий поток : 3125 Кбит/сек
Название фильма : Терминатор: Генезис / Terminator Genisys (2015) в 3Д
Дата кодирования : UTC 2015-11-21 21:53:51
Программа кодирования : mkvmerge v4.2.0 ('No Talking') сборка от Jul 28 2010 18:38:23
Библиотека кодирования : libebml v1.0.0 + libmatroska v1.0.0Видео
Идентификатор : 1
Формат : AVC
Формат/Информация : Advanced Video Codec
Профиль формата : [email protected]
/* */
Параметр CABAC формата : Да
Параметр ReFrames формата : 12 кадров
Режим смешивания : Header stripping
Идентификатор кодека : V_MPEG4/ISO/AVC
Продолжительность : 2 ч. 5 м.
Битрейт : 1846 Кбит/сек
Ширина : 1060 пикселей
Высота : 444 пикселя
Соотношение сторон : 2,40:1
Режим частоты кадров : Постоянный
Частота кадров : 23,976 кадра/сек
Цветовое пространство : YUV
Субдискретизация насыщенности : 4:2:0
Битовая глубина : 8 бит
Тип развёртки : Прогрессивная
Бит/(Пиксели*Кадры) : 0.164
Размер потока : 1,57 Гбайт (57%)
Заголовок : Terminator Genisys (2015) (New-Team) (Rip by Stalker oK)
Библиотека кодирования : x264 core 146 r2538kMod 121396c
Настройки программы : cabac=1 / ref=12 / deblock=1:-3:-3 / analyse=0x3:0x133 / me=umh / subme=11 / psy=1 / fade_compensate=0.00 / psy_rd=1.00:0.13 / mixed_ref=1 / me_range=48 / chroma_me=1 / trellis=2 / 8x8dct=1 / cqm=0 / deadzone=21,11 / fast_pskip=0 / chroma_qp_offset=-3 / threads=12 / lookahead_threads=3 / sliced_threads=0 / nr=0 / decimate=0 / interlaced=0 / bluray_compat=0 / constrained_intra=0 / fgo=0 / bframes=12 / b_pyramid=2 / b_adapt=2 / b_bias=0 / direct=3 / weightb=1 / open_gop=0 / weightp=2 / keyint=240 / keyint_min=23 / scenecut=40 / intra_refresh=0 / rc_lookahead=40 / rc=2pass / mbtree=0 / bitrate=1846 / ratetol=1.0 / qcomp=0.70 / qpmin=0 / qpmax=69 / qpstep=4 / cplxblur=20.0 / qblur=0.5 / vbv_maxrate=50000 / vbv_bufsize=62500 / nal_hrd=none / filler=0 / ip_ratio=1.40 / pb_ratio=1.30 / aq=3:0.90
Default : Да
Forced : НетАудио #1
Идентификатор : 2
Формат : AC-3
Формат/Информация : Audio Coding 3
Расширение режима : CM (complete main)
Параметр Endianness формата : Big
Режим смешивания : Header stripping
Идентификатор кодека : A_AC3
Продолжительность : 2 ч. 5 м.
Вид битрейта : Постоянный
Битрейт : 640 Кбит/сек
Каналы : 6 каналов
Расположение каналов : Front: L C R, Side: L R, LFE
Частота : 48,0 КГц
Метод сжатия : С потерями
Размер потока : 575 Мбайт (20%)
Заголовок : Авторский, А.Гаврилов
Язык : Russian
Default : Нет
Forced : НетАудио #2
Идентификатор : 3
Формат : AC-3
Формат/Информация : Audio Coding 3
Расширение режима : CM (complete main)
Параметр Endianness формата : Big
Режим смешивания : Header stripping
Идентификатор кодека : A_AC3
Продолжительность : 2 ч. 5 м.
Вид битрейта : Постоянный
Битрейт : 640 Кбит/сек
Каналы : 6 каналов
Расположение каналов : Front: L C R, Side: L R, LFE
Частота : 48,0 КГц
Метод сжатия : С потерями
Размер потока : 575 Мбайт (20%)
Default : Да
Forced : Нет

Скриншоты

Трейлер

Яндекс.Метрика
Рейтинг@Mail.ru