[ Сегодня на трекере фрилич! Идет свободное скачивание без начисления Download ]

Перевозчик: Наследие / The Transporter Refueled (Камиль Деламарр / Camille Delamarre) [2015 г., боевик, триллер, криминал, HDRip] Dub [Чистый звук]

 

Создавать темы 23-Ноя-2015 06:19

--Перевозчик: Наследие / The Transporter Refueled-- Производство: Франция, Китай / EuropaCorp, TF1 Films Production, Fundamental Films
Год выпуска: 2015 г.
Жанр: боевик, триллер, криминал
Продолжительность: 01:35:54--Мировая премьера: 2 сентября 2015
Российская премьера: 10 сентября 2015, «Централ Партнершип»--Перевод: Профессиональный (полное дублирование) [Чистый звук]--Режиссер: Камиль Деламарр / Camille Delamarre--В ролях: Эд Скрейн, Рэй Стивенсон, Лоан Шабаноль, Габриэлла Райт, Татьяна Пайкович, Венься Ю, Радивойе Буквич, Ноэми Ленуар, Юрий Колокольников, Ленн Кудрявицки--Описание: Фрэнк Мартин — самый высококвалифицированный перевозчик, которого только можно нанять за деньги. Ставки выше, технологии поднялись на более высокий уровень, но правила те же: никогда не изменять условия сделки, никаких имен и никогда не открывать груз.
Когда Фрэнка нанимает хитроумная красотка Анна и ее три очаровательные сообщницы, он быстро выясняет, что его водят за нос. Анна и ее команда похитили его отца, чтобы заставить Фрэнка помочь им разобраться с группой безжалостных торговцев людьми.-- --Качество видео: HDRip
Контейнер: AVI
Видео кодек: XviD
Аудио кодек: AC3
Видео: 720x304 (2.37:1), 23.976 fps, XviD build 50 ~1970 kbps avg, 0.38 bit/pixel
Аудио: 48 kHz, AC3 Dolby Digital, 2/0 (L,R) ch, ~192 kbps
Cубтитры: отсутствуют

Media Info

Общее
Полное имя : H:\Torrent2\5eReV0z4iK.Na7lEd1e.2015.D.HDRip.avi
Формат : AVI
Формат/Информация : Audio Video Interleave
Размер файла : 1,46 Гбайт
Продолжительность : 1 ч. 35 м.
Общий поток : 2172 Кбит/сек
Программа кодирования : VirtualDubMod 1.5.10.3 | www.virtualdub-fr.org || (build 2550/release)Видео
Идентификатор : 0
Формат : MPEG-4 Visual
Профиль формата : Advanced [email protected]
Параметр BVOP формата : 2
Параметр QPel формата : Нет
Параметр GMC формата : Без точки перехода
Параметр матрицы формата : Default (MPEG)
Идентификатор кодека : XVID
Идентификатор кодека/Подсказка : XviD
Продолжительность : 1 ч. 35 м.
Битрейт : 1971 Кбит/сек
Ширина : 720 пикселей
Высота : 304 пикселя
Соотношение сторон : 2,35:1
Частота кадров : 23,976 кадра/сек
Цветовое пространство : YUV
Субдискретизация насыщенности : 4:2:0
Битовая глубина : 8 бит
Тип развёртки : Прогрессивная
Метод сжатия : С потерями
Бит/(Пиксели*Кадры) : 0.376
Размер потока : 1,32 Гбайт (91%)
Библиотека кодирования : XviD 1.2.1 (UTC 2008-12-04)Аудио
Идентификатор : 1
Формат : AC-3
Формат/Информация : Audio Coding 3
Расширение режима : CM (complete main)
Параметр Endianness формата : Big
Идентификатор кодека : 2000
Продолжительность : 1 ч. 35 м.
Вид битрейта : Постоянный
Битрейт : 192 Кбит/сек
Каналы : 2 канала
Расположение каналов : Front: L R
Частота : 48,0 КГц
Метод сжатия : С потерями
Размер потока : 132 Мбайт (9%)
Выравнивание : Разделение по промежуткам
Продолжительность промежутка : 42 мс. (1,00 видеокадр)
Время предзагрузки промежутка : 500 мс.

Скриншоты

Трейлер
Яндекс.Метрика
Рейтинг@Mail.ru