Дискотека 80-х [2013 г.] (концерт) [HDTV, 1080i]

 

Создавать темы 23-Ноя-2015 06:18

-Дискотека 80-х-- Год выпуска: 2013 г.
Страна: Россия
Жанр: концерт
Продолжительность: 02:28:22-Описание: 23 ноября 2013 года в Москве на сцене спортивного комплекса «Олимпийский» прошел XII Международный музыкальный фестиваль «Авторадио» - «Дискотека 80-х».Фирменный фестиваль «Авторадио» - всегда яркое и захватывающее шоу, ультрасовременная сценография, оригинальные творческие находки и, конечно же, незабываемая встреча с кумирами.Каждое имя в афише фестиваля - легенда, а хиты «Дискотеки 80-х» неподвластны времени. Эта, по-настоящему хорошая танцевальная музыка в моде и в почете во многом благодаря «Авторадио», давшему старт фестивалю осенью 2002 года.В юбилейном для «Авторадио» году к названию «Дискотека 80-х» добавилось «Top 20», и значит, концепция нынешнего фестиваля - ИМЕНА.Двадцать звездных имен, двадцать лучших, по мнению слушателей и команды радиостанции!Thomas Anders, Sandra, Boney M и Ricchi e Poveri, Alphaville и F.R.David, Joy, Pupo, Secret Service, Savage, Eddy Huntington, Ottawan выйдут 23 ноября на сцену «Олимпийского».Впервые на «Дискотеке 80-х» популярный английский исполнитель Rick Astley, чей дебютный сингл «Never Gonna Give You Up», взорвавший в конце 80-х британские чарты, стал мировым суперхитом, а также мастера красивых романтичных баллад Ten Sharp. В активе голландцев много красивых лиричных баллад, гимнов любви и нежности, но для всех слушателей Ten Sharp - это, в первую очередь, группа, подарившая миру песню You - мелодичный мега-хит, ставший гимном всех влюбленных и побывавший на первых местах всех мыслимых хит-парадов.Среди отечественных звезд «Дискотеки 80-х» в этом году - неподражаемый Олег Газманов, культовая группа «Мираж», король рок-н-ролла Валерий Сюткин, маэстро российской эстрады Игорь Николаев и, конечно же, кумиры дискотек, ведущие первых фестивалей «Авторадио» Сергей Минаев и Владимир Маркин.-Качество видео: HDTV
Источник: Первый канал HD
Контейнер: TS
Стандарт разрешения: 1080i
Видео кодек: MPEG4 AVC
Аудио кодек: MP2
Видео: 1920x1080 at 25.000 fps, ~12,0 Mbps avg
Аудио: Russian: 48 kHz, MP2, 2/0 (L,R) ch, ~192.00 kbps avg-

Трэклист

01. Ottawan - D.I.S.C.O.
02. Ottawan - Hands Up
03. Joy - Valerie
04. Joy - Touch By Touch
05. Мираж - Я больше не прошу
06. Мираж - Музыка нас связала
07. Thomas Anders - Brother Louie
08. Thomas Anders - Cheri, Cheri Lady
09. Thomas Anders - You're My Heart, You're My Soul
10. Игорь Николаев - Незнакомка
11. F.R. David - Words
12. F.R. David - Taxi
13. Sandra - Everlasting Love
14. Sandra - Maria Magdalena
15. Eddy Huntington - Love For Russia
16. Eddy Huntington - U.S.S.R
17. Олег Газманов - Путана
18. Олег Газманов - Эскадрон
19. Boney M - Rivers Of Babylon
20. Boney M - Rasputin
21. Boney M - Bahama Mama
22. Pupo - Lo Devo Solo a Te
23. Pupo - Gelato Al Cioccolato
24. Savage - Only You
25. Savage - Goodbye
26. Валерий Сюткин - Московский бит
27. Валерий Сюткин - Любите девушки
28. Ricchi e Poveri - Dan Dan (E Una Canzone D'Amore)
29. Ricchi e Poveri - Come Vorrei
30. Ricchi e Poveri & Анжелика Шатулина - Mama Maria
31. Alphaville - Forever Young
32. Alphaville - Big In Japan
33. Secret Service - Ten O'Clock Postman
34. Secret Service - Flash In The Night
35. Ten Sharp - You
36. Rick Astley - Never Gonna Give You Up
37. Rick Astley - Together Forever
38. Сергей Минаев и Владимир Маркин - Мы вместе опять

Media Info

Код:
General
ID : 1 (0x1)
Complete name : Y:\Uploads\Pirat.Ca\Diskoteka.80-h.2013.1080i.HDTV.ts
Format : MPEG-TS
File size : 13.2 GiB
Duration : 2h 28mn
Overall bit rate mode : Variable
Overall bit rate : 12.7 MbpsVideo
ID : 69 (0x45)
Menu ID : 1 (0x1)
Format : AVC
Format/Info : Advanced Video Codec
Format profile : [email protected]
/* */
Format settings, CABAC : Yes
Format settings, ReFrames : 3 frames
Codec ID : 27
Duration : 2h 28mn
Bit rate : 11.9 Mbps
Width : 1 920 pixels
Height : 1 080 pixels
Display aspect ratio : 16:9
Frame rate : 25.000 fps
Standard : Component
Color space : YUV
Chroma subsampling : 4:2:0
Bit depth : 8 bits
Scan type : Interlaced
Scan order : Top Field First
Bits/(Pixel*Frame) : 0.229
Stream size : 12.3 GiB (94%)
Color primaries : BT.709
Transfer characteristics : BT.709
Matrix coefficients : BT.709
Color range : LimitedAudio
ID : 68 (0x44)
Menu ID : 1 (0x1)
Format : MPEG Audio
Format version : Version 1
Format profile : Layer 2
Codec ID : 3
Duration : 2h 28mn
Bit rate mode : Constant
Bit rate : 192 Kbps
Channel(s) : 2 channels
Sampling rate : 48.0 KHz
Compression mode : Lossy
Stream size : 204 MiB (2%)
Language : Russian

Скриншоты

Яндекс.Метрика
Рейтинг@Mail.ru