[ Сегодня на трекере фрилич! Идет свободное скачивание без начисления Download ]

Половое воспитание / Sex Ed (Исаак Федер / Isaac Feder) [2014 г., мелодрама, комедия, WEB-DLRip] Dub [Чистый звук]

 

Создавать темы 23-Ноя-2015 05:46

--Половое воспитание / Sex Ed--«Пусть лучше вашим детям об этом расскажет он»-- Производство: США, Sweet Tomato Films
Год выпуска: 2014 г.
Жанр: мелодрама, комедия
Продолжительность: 01:28:21--Мировая премьера: 7 ноября 2014
Российская премьера: 1 октября 2015, «Top Film Distribution»--Перевод: Профессиональный (полное дублирование) [Чистый звук]--Режиссер: Исаак Федер / Isaac Feder--В ролях: Лоренца Иззо, Хейли Джоэл Осмент, Глен Пауэлл, Лора Хэрринг, Джордж Идс, Эбби Эллиотт, Мэтт Уолш, Ретта, Паркер Янг, Рэй Сантьяго--Описание: Эдди проводит свой первый урок в средней школе и обнаруживает, что его ученики не получают никакого полового воспитания. Он решает это исправить, хотя сам не слишком опытен в этой сфере.-- --Качество видео: WEB-DLRip
Контейнер: AVI
Видео кодек: XviD
Аудио кодек: AC3
Видео: 720x304 (2.37:1), 25 fps, XviD build 50 ~1941 kbps avg, 0.35 bit/pixel
Аудио: 44.1 kHz, AC3 Dolby Digital, 2/0 (L,R) ch, ~256 kbpsCубтитры: Отсутствуют

Media Info

Общее
Полное имя : H:\Torrent2\p0L0B0e.B0Cp1taH1e.2015.D.WEB-DLRip.1400Mb.avi
Формат : AVI
Формат/Информация : Audio Video Interleave
Размер файла : 1,37 Гбайт
Продолжительность : 1 ч. 28 м.
Общий поток : 2208 Кбит/сек
Программа кодирования : VirtualDubMod 1.5.10.2 (build 2540/release)Видео
Идентификатор : 0
Формат : MPEG-4 Visual
Профиль формата : Advanced [email protected]
Параметр BVOP формата : 2
Параметр QPel формата : Нет
Параметр GMC формата : Без точки перехода
Параметр матрицы формата : Default (MPEG)
Идентификатор кодека : XVID
Идентификатор кодека/Подсказка : XviD
Продолжительность : 1 ч. 28 м.
Битрейт : 1942 Кбит/сек
Ширина : 720 пикселей
Высота : 304 пикселя
Соотношение сторон : 2,35:1
Частота кадров : 25,000 кадров/сек
Цветовое пространство : YUV
Субдискретизация насыщенности : 4:2:0
Битовая глубина : 8 бит
Тип развёртки : Прогрессивная
Метод сжатия : С потерями
Бит/(Пиксели*Кадры) : 0.355
Размер потока : 1,20 Гбайт (88%)
Библиотека кодирования : XviD 1.2.1 (UTC 2008-12-04)Аудио
Идентификатор : 1
Формат : AC-3
Формат/Информация : Audio Coding 3
Расширение режима : CM (complete main)
Параметр Endianness формата : Big
Идентификатор кодека : 2000
Продолжительность : 1 ч. 28 м.
Вид битрейта : Постоянный
Битрейт : 256 Кбит/сек
Каналы : 2 канала
Расположение каналов : Front: L R
Частота : 44,1 КГц
Метод сжатия : С потерями
Размер потока : 162 Мбайт (12%)
Выравнивание : Разделение по промежуткам
Продолжительность промежутка : 40 мс. (1,00 видеокадр)
Время предзагрузки промежутка : 500 мс.

Скриншоты

Трейлер
Яндекс.Метрика
Рейтинг@Mail.ru