[ Сегодня на трекере фрилич! Идет свободное скачивание без начисления Download ]

33 / The 33 (Патрисия Ригген) [2015, Драма, биография, история WEB-DL 720р] [Sunshine Studio]

 

Создавать темы 22-Ноя-2015 23:51

33 / The 33--
    Год выпуска » 2015
    Страна » США, Чили / Alcon Entertainment, Dynamo, FABULA, Half Circle, Phoenix Pictures
    Жанр » Драма, биография, история
    Продолжительность » 02:07:21
    Перевод » Любительский (двухголосый) Sunshine Studio
    Субтитры » Русские
В ролях
» Антонио Бандерас, Родриго Санторо, Жюльет Бинош, Джеймс Бролин, Лу Даймонд Филлипс, Марио Касас, Джейкоб Варгас, Хуан Пабло Раба, Оскар Нунез, Теноч Уэрта
Режиссёр
» Патрисия Ригген
ОПИСАНИЕ:
» Фильм, основанный на реальных событиях, расскажет о тридцати трех чилийских шахтерах, которые в 2010 году на 69 дней оказались в ловушке под землей.
    Качество » WEB-DL 720р
    Формат » MKV
    Видео кодек » AVC
    Аудио кодек » AC3
    Видео » AVC at 2 993 kb/s, 1280x528 at 23.976 fps
    Аудио » AC3, 384 kb/s, 2 канала, 48.0 КгцРусский
    Аудио » AC3, 384 kb/s, 6 каналов, 48.0 КгцАнглийский
СЭМПЛ:--

Медиа инфо

Уникальный идентификатор : 190189656446413114366715613776621368285 (0x8F153208C491E37DA364E7E5991C73DD)
Полное имя : 33.2015.L2.WEB-DL.720p.mkv
Формат : Matroska
Версия формата : Version 4 / Version 2
Размер файла : 3,35 Гбайт
Продолжительность : 2 ч. 7 м.
Общий поток : 3761 Кбит/сек
Название фильма : EVO
Дата кодирования : UTC 2015-11-22 14:22:35
Программа кодирования : mkvmerge v8.5.2 ('Crosses') 64bit
Библиотека кодирования : libebml v1.3.3 + libmatroska v1.4.4
DURATION : 01:54:45.000000000
NUMBER_OF_FRAMES : 3
NUMBER_OF_BYTES : 208
_STATISTICS_WRITING_APP : mkvmerge v8.5.2 ('Crosses') 64bit
_STATISTICS_WRITING_DATE_UTC : 2015-11-22 14:22:35
_STATISTICS_TAGS : BPS DURATION NUMBER_OF_FRAMES NUMBER_OF_BYTES
Видео
Идентификатор : 1
Формат : AVC
Формат/Информация : Advanced Video Codec
Профиль формата : [email protected]
Параметр CABAC формата : Да
Параметр ReFrames формата : 8 кадров
Идентификатор кодека : V_MPEG4/ISO/AVC
Продолжительность : 2 ч. 7 м.
Битрейт : 2993 Кбит/сек
Ширина : 1280 пикселей
Высота : 528 пикселей
Соотношение сторон : 2,40:1
Режим частоты кадров : Постоянный
Частота кадров : 23,976 кадра/сек
Цветовое пространство : YUV
Субдискретизация насыщенности : 4:2:0
Битовая глубина : 8 бит
Тип развёртки : Прогрессивная
Бит/(Пиксели*Кадры) : 0.185
Размер потока : 2,60 Гбайт (78%)
Библиотека кодирования : x264 core 142 r2479 dd79a61
Настройки программы : cabac=1 / ref=8 / deblock=1:0:0 / analyse=0x3:0x133 / me=umh / subme=9 / psy=1 / psy_rd=1.00:0.00 / mixed_ref=1 / me_range=16 / chroma_me=1 / trellis=2 / 8x8dct=1 / cqm=0 / deadzone=21,11 / fast_pskip=1 / chroma_qp_offset=-2 / threads=12 / lookahead_threads=1 / sliced_threads=0 / nr=0 / decimate=1 / interlaced=0 / bluray_compat=0 / constrained_intra=0 / bframes=3 / b_pyramid=2 / b_adapt=2 / b_bias=0 / direct=3 / weightb=1 / open_gop=0 / weightp=2 / keyint=240 / keyint_min=24 / scenecut=40 / intra_refresh=0 / rc_lookahead=60 / rc=2pass / mbtree=1 / bitrate=2993 / ratetol=1.0 / qcomp=0.60 / qpmin=0 / qpmax=69 / qpstep=4 / cplxblur=20.0 / qblur=0.5 / vbv_maxrate=62500 / vbv_bufsize=78125 / nal_hrd=none / filler=0 / ip_ratio=1.40 / aq=1:1.00
Default : Да
Forced : Нет
Цветовой диапазон : Limited
Основные цвета : BT.709
Характеристики трансфера : BT.709
Коэффициенты матрицы : BT.709
DURATION : 02:07:20.884000000
NUMBER_OF_FRAMES : 183198
NUMBER_OF_BYTES : 2858264843
_STATISTICS_WRITING_APP : mkvmerge v8.5.2 ('Crosses') 64bit
_STATISTICS_WRITING_DATE_UTC : 2015-11-22 14:22:35
_STATISTICS_TAGS : BPS DURATION NUMBER_OF_FRAMES NUMBER_OF_BYTES
Аудио #1
Идентификатор : 2
Формат : AC-3
Формат/Информация : Audio Coding 3
Расширение режима : CM (complete main)
Параметр Endianness формата : Big
Идентификатор кодека : A_AC3
Продолжительность : 2 ч. 7 м.
Вид битрейта : Постоянный
Битрейт : 384 Кбит/сек
Каналы : 2 канала
Расположение каналов : Front: L R
Частота : 48,0 КГц
Метод сжатия : С потерями
Задержка видео : -83 мс.
Размер потока : 350 Мбайт (10%)
Язык : Russian
Default : Да
Forced : Нет
Аудио #2
Идентификатор : 3
Формат : AC-3
Формат/Информация : Audio Coding 3
Расширение режима : CM (complete main)
Параметр Endianness формата : Big
Идентификатор кодека : A_AC3
Продолжительность : 2 ч. 7 м.
Вид битрейта : Постоянный
Битрейт : 384 Кбит/сек
Каналы : 6 каналов
Расположение каналов : Front: L C R, Side: L R, LFE
Частота : 48,0 КГц
Метод сжатия : С потерями
Задержка видео : -83 мс.
Размер потока : 350 Мбайт (10%)
Язык : English
Default : Нет
Forced : Нет
Текст
Идентификатор : 4
Формат : UTF-8
Идентификатор кодека : S_TEXT/UTF8
Идентификатор кодека/Информация : UTF-8 Plain Text
Язык : Russian
Default : Да
Forced : Да
Меню
00:00:00.000 : :Capítulo 01
00:08:26.172 : :Capítulo 02
00:14:04.135 : :Capítulo 03
00:21:03.178 : :Capítulo 04
00:27:14.132 : :Capítulo 05
00:33:40.184 : :Capítulo 06
00:44:49.144 : :Capítulo 07
00:52:39.156 : :Capítulo 08
00:59:41.202 : :Capítulo 09
01:11:08.180 : :Capítulo 10
01:23:47.147 : :Capítulo 11
01:30:12.198 : :Capítulo 12
01:39:30.130 : :Capítulo 13
01:45:38.123 : :Capítulo 14
01:54:52.177 : :Capítulo 15
01:57:52.148 : :Capítulo 16

Скриншоты:

Яндекс.Метрика
Рейтинг@Mail.ru