Вызов мастеров / Challenge of the Masters / Liu A-Cai yu Huang Fei-Hong (Лиу Чиа-Лянг / Liu Chia-Liang) [1976, Гонконг, боевые искусства, WEB-DL 720p] AVO (Сергей Кузнецов) + Sub Eng + Original Chi

 

Создавать темы 21-Ноя-2015 14:41

--Вызов мастеров / Challenge of the Masters
Liu A-Cai yu Huang Fei-Hong
-- Страна: Гонконг
Студия: Shaw Brothers
Жанр: боевые искусства
Год выпуска: 1976
Продолжительность: 01:32:44
Перевод: Авторский (одноголосый закадровый) Сергей Кузнецов
Cубтитры: английские
Оригинальная аудиодорожка: китайский
Режиссер: Лиу Чиа-Лянг / Liu Chia-Liang
В ролях: Гордон Лиу, Чен Куан-Тай, Конг Юнг, Лау Кар-Винг, Лили Ли, Лиу Чиа-Лянг, Рикки Хуи, Уилсон Тонг, Чанг Тао, Эрик Тсанг, Билли Чан, Вонг Па-Чинг, Вонг Ха, Вонг Чи-Кеунг (2), Вонг Шу-Тонг, Вонг Ю, Джон Чеунг, Лам Чинг-Йинг, Лау Кеунг, Ли Панг-Фей, Ли Сау-Кей, Ли Чиу, Лин Ке-Минг, Манг Хой, Саи Квай-Пау, Сан Син, Тинг Тунг, Тунг Чой-Бо, Фунг Хак-Он, Хо Бо-Синг, Хо Кей-Чеонг, Чан Дик-Хак, Чан Лунг, Ченг Канг-Йе, Чеунг Чок-Чоу, Чик Нгай-Хунг, Чин Юэт-Санг, Чоу Кам-Конг, Чоу Юн-Кин, Чу Яу-Ко, Чуи Чунг-Хок, Шум Ло, Шут Чунг-Тин, Юэнь Бьяо
Описание: Молодой Вонг Фей-Хунг (Гордон Лиу) никак не может убедить взрослых, что созрел для изучения кунгфу – его отец и учитель отца считают, что Фей-Хунг слишком горяч. За паренька вступается и переубеждает взрослых лишь полицейский Юэнь (Лау Кар-Винг), который приехал в Гуанджоу в поисках сбежавшего от правосудия грабителя. А после того, как бандит, оказавшийся мастером боевых искусств, убивает-таки Юэня, у Фей-Хунга появляется реальный повод обучиться кунгфу – отомстить злодею.
II Сэмпл II IMDB II
Релиз группа:

Доп. информация:
За перевод Сергея Кузнецова и оригинальную шестиканалку спасибо ilya29
Тип релиза: WEB-DL 720p
Контейнер: MKV
Видео: AVC / 960x526 / 2.40:1 / 25.0fps / Bit rate 4131Kbps
Аудио 1: AC / 48.0 KHz / 2ch. / 192kbps / rus / AVO / Сергей Кузнецов
Аудио 2: AAC-LC / 48.0 KHz / 2ch. / 107kbps / eng
Аудио 3: AC / 48.0 KHz / 6ch. / 384kbps / chi / Mandarin / DVD
Аудио 4: AAC-LC / 48.0 KHz / 2ch. / 97kbps / chi / Mandarin / WEB-DL
Формат субтитров: softsub (SRT)

MediaInfo

Уникальный идентификатор : 228281295610159807605409885310298736672 (0xABBD60D8003AC6F6A11A5FB98FB5C820)
Полное имя : H:\!_Torrent\Challenge.of.the.Masters.1976.WEB-DL.720p_by_vedigo.mkv
Формат : Matroska
Версия формата : Version 4 / Version 2
Размер файла : 3,24 Гбайт
Продолжительность : 1 ч. 32 м.
Общий поток : 4995 Кбит/сек
Название фильма : Challenge.of.the.Masters.1976.WEB-DL.720p_by_vedigo
Дата кодирования : UTC 2015-11-21 06:26:41
Программа кодирования : mkvmerge v8.5.2 ('Crosses') 64bit
Библиотека кодирования : libebml v1.3.3 + libmatroska v1.4.4
DURATION : 01:32:44.992000000
NUMBER_OF_FRAMES : 173906
NUMBER_OF_BYTES : 267119616
_STATISTICS_WRITING_APP : mkvmerge v8.5.2 ('Crosses') 64bit
_STATISTICS_WRITING_DATE_UTC : 2015-11-21 06:26:41
_STATISTICS_TAGS : BPS DURATION NUMBER_OF_FRAMES NUMBER_OF_BYTES
Видео
Идентификатор : 1
Формат : AVC
Формат/Информация : Advanced Video Codec
Профиль формата : [email protected]
Параметр CABAC формата : Нет
Параметр ReFrames формата : 2 кадра
Идентификатор кодека : V_MPEG4/ISO/AVC
Продолжительность : 1 ч. 32 м.
Ширина : 960 пикселей
Высота : 526 пикселей
Соотношение сторон : 2,40:1
Режим частоты кадров : Постоянный
Частота кадров : 25,000 кадров/сек
Цветовое пространство : YUV
Субдискретизация насыщенности : 4:2:0
Битовая глубина : 8 бит
Тип развёртки : Прогрессивная
Заголовок : Challenge.of.the.Masters.1976.WEB-DL.720p_by_vedigo
Default : Да
Forced : Нет
Цветовой диапазон : Limited
Основные цвета : BT.709
Характеристики трансфера : BT.709
Коэффициенты матрицы : BT.709
Аудио #1
Идентификатор : 2
Формат : AC-3
Формат/Информация : Audio Coding 3
Расширение режима : CM (complete main)
Параметр Endianness формата : Big
Идентификатор кодека : A_AC3
Продолжительность : 1 ч. 32 м.
Вид битрейта : Постоянный
Битрейт : 192 Кбит/сек
Каналы : 2 канала
Расположение каналов : Front: L R
Частота : 48,0 КГц
Метод сжатия : С потерями
Размер потока : 127 Мбайт (4%)
Заголовок : AVO @ Сергей Кузнецов
Язык : Russian
Default : Да
Forced : Нет
Аудио #2
Идентификатор : 3
Формат : AAC
Формат/Информация : Advanced Audio Codec
Профиль формата : LC
Идентификатор кодека : A_AAC
Продолжительность : 1 ч. 32 м.
Каналы : 2 канала
Расположение каналов : Front: L R
Частота : 48,0 КГц
Метод сжатия : С потерями
Заголовок : Dub @ Eng
Язык : English
Default : Нет
Forced : Нет
Аудио #3
Идентификатор : 4
Формат : AC-3
Формат/Информация : Audio Coding 3
Расширение режима : CM (complete main)
Параметр Endianness формата : Big
Идентификатор кодека : A_AC3
Продолжительность : 1 ч. 32 м.
Вид битрейта : Постоянный
Битрейт : 384 Кбит/сек
Каналы : 6 каналов
Расположение каналов : Front: L C R, Side: L R, LFE
Частота : 48,0 КГц
Метод сжатия : С потерями
Размер потока : 255 Мбайт (8%)
Заголовок : Chi @ DVD (Mandarin)
Язык : Chinese
Default : Нет
Forced : Нет
Аудио #4
Идентификатор : 5
Формат : AAC
Формат/Информация : Advanced Audio Codec
Профиль формата : LC
Идентификатор кодека : A_AAC
Продолжительность : 1 ч. 32 м.
Каналы : 2 канала
Расположение каналов : Front: L R
Частота : 48,0 КГц
Метод сжатия : С потерями
Заголовок : Chi @ WEB-DL (Mandarin)
Язык : Chinese
Default : Нет
Forced : Нет
Текст
Идентификатор : 6
Формат : UTF-8
Идентификатор кодека : S_TEXT/UTF8
Идентификатор кодека/Информация : UTF-8 Plain Text
Заголовок : subtitle eng
Язык : English
Default : Нет
Forced : Нет
Меню
00:00:00.000 : en:1
00:13:49.000 : en:2
00:21:04.000 : en:3
00:31:43.000 : en:4
00:39:30.000 : en:5
00:51:58.000 : en:6
01:02:22.000 : en:7
01:11:10.000 : en:8
01:18:20.000 : en:9
01:26:58.000 : en:10

Скриншоты

Яндекс.Метрика
Рейтинг@Mail.ru