[ Сегодня на трекере фрилич! Идет свободное скачивание без начисления Download ]

След / Серии 1301-1394из ??? (Юрий Харнас и др.) [2015-2016, Детектив, SATRip](Обновляемая)

 

Создавать темы 19-Ноя-2015 21:23

-След- Год выпуска: 2014
Производство: ООО "Объединение телевизионных компаний", Россия
Жанр: Детектив
Продолжительность: ~ 39 мин.
Режиссёр: Юрий Харнас и др.
В ролях: Ольга Копосова, Владимир Ташлыков, Павел Шуваев, Георгий Тесля-Герасимов, Анна Дюкова, Сергей Пиоро, Андрей Лавров, Евгений Кулаков, Анастасия Гулимова, Олег Валкман, Ольга Зейгер, Руслан Сасин, Александра Попова, Сергей Коваленко
Описание: Идеальных преступлений не бывает. После каждого остаются следы. Иногда эти следы бросаются в глаза. Иногда их можно найти только с помощью специальных приборов. Федеральная Экспертная служба - это уникальная лаборатория, которая объединяет несколько экспертных служб в одну и отвечает за проведение исследований во всех мыслимых областях прикладной криминалистики, будь то химическая, биологическая, медицинская экспертиза или баллистика...

Внимание! Раздача ведётся путём добавления новых серий

Внимание! Раздача ведётся путём добавления новых серий; при каждом добавлении создаётся новый торрент. Чтобы начать докачку новой серии, пользователям необходимо сделать следующее:
(1) остановить скачивание,
(2) удалить старый торрент у себя из клиента (старые серии удалять не надо),
(3) скачать новый торрент и запустить его у себя в клиенте вместо старого, при этом указать клиенту путь в старую папку куда и должно происходить скачивание новых серий.
Ваш клиент при этом должен произвести хеширование (проверку) старой папки (если не производит сам - помогите ему сделать это), и будет докачивать только те серии которых у вас ещё нет. Старые серии при этом не удаляются, а продолжают раздаваться!
Eсли вы уже удалили старые серии, то предотвратить повторную закачку старых серий можно, отжав галочку в соответствующих местах при запуске нового торрента. По возможности, желательно не удалять старые серии как можно дольше чтобы релизёр не столько продолжал раздавать старые серии, а смог сконцентрироваться на новых.
Качество: SATRip
Формат: AVI
Видео кодек: XviD
Аудио кодек: MP3
Видео: 704x400 (1.76:1), 25 fps, XviD build 73 ~1400 kbps avg, 0.20 bit/pixel
Аудио: 48 kHz, MPEG Layer 3, 2 ch, ~128.00 kbps avg

MI

Полное имя : G:\uTorrent\След 2014-2015\Sled 1301.avi
Формат : AVI
Формат/Информация : Audio Video Interleave
Размер файла : 423 Мбайт
Продолжительность : 38 м.
Общий поток : 1538 Кбит/сек
Программа кодирования : VirtualDubMod 1.5.10.3 | www.virtualdub-fr.org || (build 2550/release)
Библиотека кодирования : VirtualDubMod build 2550/release
Видео
Идентификатор : 0
Формат : MPEG-4 Visual
Профиль формата : Advanced [email protected]
Параметр BVOP формата : 1
Параметр QPel формата : Нет
Параметр GMC формата : Без точки перехода
Параметр матрицы формата : Default (MPEG)
Идентификатор кодека : XVID
Идентификатор кодека/Подсказка : XviD
Продолжительность : 38 м.
Битрейт : 1401 Кбит/сек
Ширина : 704 пикселя
Высота : 400 пикселей
Соотношение сторон : 16:9
Частота кадров : 25,000 кадров/сек
Цветовое пространство : YUV
Субдискретизация насыщенности : 4:2:0
Битовая глубина : 8 бит
Тип развёртки : Прогрессивная
Метод сжатия : С потерями
Бит/(Пиксели*Кадры) : 0.199
Размер потока : 386 Мбайт (91%)
Библиотека кодирования : XviD 73
Аудио
Идентификатор : 1
Формат : MPEG Audio
Версия формата : Version 1
Профиль формата : Layer 3
Идентификатор кодека : 55
Идентификатор кодека/Подсказка : MP3
Продолжительность : 38 м.
Вид битрейта : Постоянный
Битрейт : 128 Кбит/сек
Каналы : 2 канала
Частота : 48,0 КГц
Метод сжатия : С потерями
Размер потока : 35,2 Мбайт (8%)
Выравнивание : Соединение по промежуткам
Продолжительность промежутка : 40 мс. (1,00 видеокадр)
Время предзагрузки промежутка : 504 мс.
Библиотека кодирования : LAME3.99r
Настройки программы : -m s -V 4 -q 0 -lowpass 17 -b 128

Скриншоты:

Названия серий:

1300 - "Исторический детектив"
1301 - "Братуха"
1302 - "Замена"
1303 - "Бессоница"
1304 - "Детские шалости"
1305 - "Эффект Ребиндера"
1306 - "Гори всё огнём"
1307 - "Сказки из ямы"
1308 - "Доброхот"
1309 - "Гений и злодейство"
1310 - "Женское счастье"
1311 - "Два смертных греха"
1312 - "Исчезновение"
1313 - "Сложный возраст"
1314 - "Тихая обитель"
1315 - "Нокаут"
1316 - "Красива до смерти"
1317 - "А напоследок я скажу..."
1318 - "Внедрение"
1319 - "Яма для другого"
1320 - "Падение"
1321 - "Большой новогодний куш"
1322 - "Дед Мороз умер"
1323 - "Лев в мышеловке"
1324 - "Спасите маму"
1325 - Женщина, которая не пьёт
1326 - Мимоза
1327 - Смерть Рогозиной
1328 - Ноу-хау
1329 - Аватар
1330 - Подстава
1331 - Отбивные с кровью
1332 - Друзья по несчастью
1333 - Агата
1334 - Спящая красавица
1335 - Волшебный мир моделей
1336 - Верное средство
1337 - Мгла
1338 - Паутина лжи
1339 - Убрать всех
1340 - Настоящий мужик
1341 - Дорогой мой человек
1342 - "У смерти много работы"
1343 - "Самый умный"
1344 - "Театр теней"
1345 - "Когда отказали тормоза"
1346 - "Смерть шантажиста"
1347 - "Второй дубль"
1348 - "Бетонная могила"
1349 - "Эхо войны"
1350 - "Большой куш"
1351 - "Брак под небесами"
1352 - "Кушать подано"
1353 - "Гипс"
1354 - "Есть что вспомнить"
1355 - "Смерть ради смеха"
1356 - "Чужая жизнь"
1357 - "Крысабой"
1358 - "Код ПИ"
1359 - "Ой, люли, мои люли!"
1360 - "Ехидна"
1361 - "Все должны умереть"
1362 - "Пропащая"
1363 - "История одной болезни"
1364 - "Иностранцы"
1365 - "В неоплатном долгу"
1366 - "Прорубь на тот свет"
1367 - "Голод"
1368 - "Зеркало"
1369 - "Живут студенты весело"
1370 - "Найди моего убийцу"
1371 - "Одно к одному"
1372 - "Должок"
1373 - "Офисные крысы"
1374 - "Надувательство с летательным исходом"
1375 - "С прибором"
1376 - "Победитель получает всё"
1377 - "Фантазерка"
1378 - "Депрессивно-раздражающие факторы"
1379 - "Непрощенный"
1380 - "Плоть от плоти"
1381 - "Беспризорные призраки"
1382 - "Семейные ценности"
1383 - "Трасса"
1384 - "Убийца где-то рядом"
1385 - "Секреты мозга"
1386 - "Собственность"
1387 - "Мертвая хватка"
1388 - "Выигрыш"
1389 - "Жирная корова"
1390 - "Местные"
1391 - "Предрассудок"
1392 - "Перелом"
1393 - "Белый туннель"
1394 - "Научный подход"
Обновлено до 1394 серии.
Яндекс.Метрика
Рейтинг@Mail.ru