[ Сегодня на трекере фрилич! Идет свободное скачивание без начисления Download ]

Хитмэн: Агент 47 / Hitman: Agent 47 (Александр Бах / Aleksander Bach) [2015, США, Германия, Индонезия, боевик, триллер, криминал, BDRip 720p] Dub + Sub Rus, Eng + Original Eng

 

Создавать темы 19-Ноя-2015 10:18

--Хитмэн: Агент 47 / Hitman: Agent 47-- Страна: США, Германия, Индонезия
Студия: Twentieth Century Fox Film Corporation, TSG Entertainment, Fox International Productions
Жанр: боевик, триллер, криминал
Год выпуска: 2015
Продолжительность: 01:36:18
Перевод: Профессиональный (дублированный)
Cубтитры: Rus, Eng
Оригинальная аудиодорожка: английский
Режиссер: Александр Бах / Aleksander Bach
В ролях: Руперт Френд, Анджела Бейби, Дэн Баккедаль, Шарлин Бек, Михаэль Борнхюттер, Нильс Брункхорст, Михаэлла Каспар, Майкл Коркоран
Описание: История об элитном убийце, созданном при помощи генной инженерии, который объединяется с женщиной, чтобы помочь ей найти отца и раскрыть тайну своего происхождения.

Тип релиза: BDRip 720p
Контейнер: MKV
Видео: MPEG-4 AVC, 4931 Кбит/с, 1280x536, 23,976 fps
Аудио: Rus, DTS, 768 kb/s (6 ch), 48 kHz
Аудио 2: Eng, DTS, 1510 kb/s (6 ch), 48 kHz
Формат субтитров: softsub (SRT)

MediaInfo

x264 [info]: frame I:1447 Avg QP:15.17 size:107474
x264 [info]: frame P:34466 Avg QP:17.59 size: 49943
x264 [info]: frame B:102591 Avg QP:19.00 size: 17419
Format : Matroska
Format version : Version 4 / Version 2
File size : 4.95 GiB
Duration : 1h 36mn
Overall bit rate : 7 354 Kbps
Movie name : Хитмэн: Агент 47. (Tonik)
Encoded date : UTC 2015-11-19 04:39:27
Writing application : mkvmerge v7.1.0 ('Good Love') 64bit built on Jul 27 2014 13:06:55
Writing library : libebml v1.3.0 + libmatroska v1.4.1
_STATISTICS_WRITING_APP : mkvmerge v7.1.0 ('Good Love') 64bit built on Jul 27 2014 13:06:55
_STATISTICS_WRITING_DATE_UTC : 2015-11-19 04:39:27
_STATISTICS_TAGS : BPS DURATION NUMBER_OF_FRAMES NUMBER_OF_BYTES
DURATION : 01:36:16.822000000
NUMBER_OF_FRAMES : 541577
NUMBER_OF_BYTES : 554574848
Video
ID : 1
Format : AVC
Format/Info : Advanced Video Codec
Format profile : [email protected]
Format settings, CABAC : Yes
Format settings, ReFrames : 12 frames
Codec ID : V_MPEG4/ISO/AVC
Duration : 1h 36mn
Bit rate : 4 931 Kbps
Width : 1 280 pixels
Height : 536 pixels
Display aspect ratio : 2.40:1
Frame rate mode : Constant
Frame rate : 23.976 fps
Color space : YUV
Chroma subsampling : 4:2:0
Bit depth : 8 bits
Scan type : Progressive
Bits/(Pixel*Frame) : 0.300
Stream size : 3.32 GiB (67%)
Writing library : x264 core 142 r2431+42 c69a006 tMod [[email protected] X86_64]
Encoding settings : cabac=1 / ref=12 / deblock=1:-3:-3 / analyse=0x3:0x133 / me=umh / subme=11 / psy=1 / fade_compensate=0.00 / psy_rd=1.05:1.00 / mixed_ref=1 / me_range=32 / chroma_me=1 / trellis=2 / 8x8dct=1 / cqm=0 / deadzone=21,11 / fast_pskip=0 / chroma_qp_offset=-4 / threads=12 / lookahead_threads=2 / sliced_threads=0 / nr=0 / decimate=0 / interlaced=0 / bluray_compat=0 / constrained_intra=0 / fgo=0 / bframes=8 / b_pyramid=2 / b_adapt=2 / b_bias=0 / direct=3 / weightb=1 / open_gop=0 / weightp=2 / keyint=240 / keyint_min=23 / scenecut=40 / intra_refresh=0 / rc_lookahead=60 / rc=crf / mbtree=0 / crf=18.0000 / qcomp=0.60 / qpmin=0:0:0 / qpmax=69:69:69 / qpstep=4 / vbv_maxrate=40000 / vbv_bufsize=30000 / crf_max=0.0 / nal_hrd=none / filler=0 / ip_ratio=1.40 / pb_ratio=1.30 / aq=1:1.00 / aq-sensitivity=10.00 / aq-factor=1.00:1.00:1.00 / aq2=0 / aq3=0
Language : English
Default : Yes
Forced : No
Audio #1
ID : 2
Format : DTS
Format/Info : Digital Theater Systems
Mode : 16
Format settings, Endianness : Big
Codec ID : A_DTS
Duration : 1h 36mn
Bit rate mode : Constant
Bit rate : 768 Kbps
Channel(s) : 6 channels
Channel positions : Front: L C R, Side: L R, LFE
Sampling rate : 48.0 KHz
Bit depth : 24 bits
Compression mode : Lossy
Stream size : 529 MiB (10%)
Language : Russian
Default : Yes
Forced : No
Audio #2
ID : 3
Format : DTS
Format/Info : Digital Theater Systems
Format profile : ES
Mode : 16
Format settings, Endianness : Big
Codec ID : A_DTS
Duration : 1h 36mn
Bit rate mode : Constant
Bit rate : 1 509 Kbps
Channel(s) : 6 channels
Channel positions : Front: L C R, Side: L R, LFE
Sampling rate : 48.0 KHz
Bit depth : 24 bits
Compression mode : Lossy
Stream size : 1.01 GiB (21%)
Language : English
Default : No
Forced : No
Text #1
ID : 4
Format : UTF-8
Codec ID : S_TEXT/UTF8
Codec ID/Info : UTF-8 Plain Text
Language : Russian
Default : No
Forced : No
Text #2
ID : 5
Format : UTF-8
Codec ID : S_TEXT/UTF8
Codec ID/Info : UTF-8 Plain Text
Language : English
Default : No
Forced : No
Menu
00:00:00.000 : en:Chapter 01
00:07:11.347 : en:Chapter 03
00:09:02.959 : en:Chapter 05
00:13:11.582 : en:Chapter 07
00:16:21.605 : en:Chapter 09
00:19:22.786 : en:Chapter 11
00:24:43.815 : en:Chapter 13
00:27:19.179 : en:Chapter 15
00:30:18.691 : en:Chapter 17
00:33:03.815 : en:Chapter 19
00:38:18.713 : en:Chapter 21
00:43:11.755 : en:Chapter 23
00:46:53.435 : en:Chapter 25
00:50:39.870 : en:Chapter 27
00:54:02.530 : en:Chapter 29
00:59:50.587 : en:Chapter 31
01:06:01.749 : en:Chapter 33
01:09:06.142 : en:Chapter 35
01:13:23.190 : en:Chapter 37
01:16:55.319 : en:Chapter 39
01:21:15.745 : en:Chapter 41
01:25:20.824 : en:Chapter 43
01:28:06.155 : en:Chapter 45
01:31:17.847 : en:Chapter 47
01:36:16.562 : en:Chapter 48

Скриншоты

Яндекс.Метрика
Рейтинг@Mail.ru