[ Сегодня на трекере фрилич! Идет свободное скачивание без начисления Download ]

Хитмэн: Агент 47 / Hitman: Agent 47 (2015,боевик, фантастика, триллер) HDRip | КПК | Лицензия

 

Создавать темы 18-Ноя-2015 05:38

-• Хитмэн: Агент 47 / Hitman: Agent 47 •- Страна: США, Германия, Индонезия
Производство: 20th Century Fox Film Corporation, Fox International Productions, Infinite Frameworks Studios, TSG Entertainment
Год выпуска: 2015
Жанр: боевик, фантастика, триллер
Режиссёр: Александр Бах
В ролях: Руперт Френд, Ханна Уэр, Закари Куинто, Киран Хайндс, Томас Кречман, Анджела Бейби, Дэн Баккедаль, Шарлин Бек, Михаэль Борнхюттер, Мелисса Бротон
Перевод: Профессиональный (полное дублирование) Лицензия - Описание: История об элитном убийце, созданном при помощи генной инженерии, который объединяется с женщиной, чтобы помочь ей найти отца и раскрыть тайну своего происхождения- - Качество: HDTVRip
Продолжительность: 01:36:12
Формат: MP4
Видео кодек: H.264 AVC
Аудио кодек: AAC-LC
Свойства видео: 640x268 (2:39:1), 23,976 fps, 600 kbps (0.146 bit/pixel)
Свойства аудио: 48.0 KHz, 2 ch, 128 kbps

MediaInfo

[General
Complete name : X:Всё для мобильных телефонов и КПКВидеоХитмэн Агент 47.2015.HDRip.mp4
Format : MPEG-4
Format profile : Base Media
Codec ID : isom
File size : 504 MiB
Duration : 1h 36mn
Overall bit rate mode : Variable
Overall bit rate : 732 Kbps
Encoded date : UTC 2015-11-17 16:59:54
Tagged date : UTC 2015-11-17 16:59:54
Video
ID : 1
Format : AVC
Format/Info : Advanced Video Codec
Format profile : [email protected]
Format settings, CABAC : Yes
Format settings, ReFrames : 9 frames
Codec ID : avc1
Codec ID/Info : Advanced Video Coding
Duration : 1h 36mn
Bit rate : 600 Kbps
Maximum bit rate : 2 348 Kbps
Width : 640 pixels
Height : 268 pixels
Display aspect ratio : 2.40:1
Frame rate mode : Constant
Frame rate : 23.976 fps
Color space : YUV
Chroma subsampling : 4:2:0
Bit depth : 8 bits
Scan type : Progressive
Bits/(Pixel*Frame) : 0.146
Stream size : 413 MiB (82%)
Title : [email protected]
Writing library : x264 core 146 r2538 121396c
Encoding settings : cabac=1 / ref=9 / deblock=1:-3:-3 / analyse=0x3:0x113 / me=umh / subme=11 / psy=1 / psy_rd=1.00:0.00 / mixed_ref=1 / me_range=32 / chroma_me=1 / trellis=2 / 8x8dct=1 / cqm=0 / deadzone=21,11 / fast_pskip=0 / chroma_qp_offset=-2 / threads=6 / lookahead_threads=1 / sliced_threads=0 / nr=0 / decimate=0 / interlaced=0 / bluray_compat=0 / constrained_intra=0 / bframes=9 / b_pyramid=2 / b_adapt=2 / b_bias=0 / direct=3 / weightb=1 / open_gop=0 / weightp=2 / keyint=240 / keyint_min=23 / scenecut=40 / intra_refresh=0 / rc=2pass / mbtree=0 / bitrate=600 / ratetol=1.0 / qcomp=0.60 / qpmin=0 / qpmax=69 / qpstep=4 / cplxblur=20.0 / qblur=0.5 / ip_ratio=1.40 / pb_ratio=1.30 / aq=1:1.00
Encoded date : UTC 2015-11-17 16:59:54
Tagged date : UTC 2015-11-17 17:00:16
Audio
ID : 2
Format : AAC
Format/Info : Advanced Audio Codec
Format profile : LC
Codec ID : 40
Duration : 1h 36mn
Bit rate mode : Variable
Bit rate : 128 Kbps
Maximum bit rate : 198 Kbps
Channel(s) : 2 channels
Channel positions : Front: L R
Sampling rate : 48.0 KHz
Compression mode : Lossy
Stream size : 88.2 MiB (17%)
Encoded date : UTC 2015-11-17 14:22:43
Tagged date : UTC 2015-11-17 17:00:16

Скриншоты

Яндекс.Метрика
Рейтинг@Mail.ru