Костяной томагавк / Bone Tomahawk (2015) WEB-DL 720p | L

 

Создавать темы 16-Ноя-2015 22:39

Костяной томагавк / Bone TomahawkГод выхода: 2015
Жанр: ужасы, вестер
Режиссер: С. Крэйг Залер
В ролях:
Патрик Уилсон, Курт Рассел, Лили Симмонс, Шон Янг, Занн МаКларнон, Мэттью Фокс, Дэвид Аркетт, Сид Хэйг, Ричард Дженкинс, Кэтрин Моррис
О фильме:
Четверо людей приезжают на дикий запад, для того чтобы убрать кровожадных каннибалов из пещер. Ведь население напугано. Каждую ночь эти монстры приходят и забирают самых слабых, только для того, чтобы полакомиться трупами.

Выпущено: США / Caliber Media Company
Продолжительность: 02:12:02
Озвучивание: Любительское (многоголосное) [студия "Paradox" & "Omskbird records"]
Роли озвучивали: Анна Тух, Константин Погодаев, Павел Ярощик и Максим Максимов
Перевод: Никита Коваль
Файл
Формат: MKV
Качество: WEB-DL 720p
Видео: MPEG-4 AVC, 3814 kb/s, 1280x536
Аудио: Russian: AC3, 192 kb/s (2 ch) / English: AC3, 384 kb/s (6 ch)
Субтитры: English

MI

Format                         : Matroska
Format version                 : Version 2
File size                      : 4.13 GiB
Duration                       : 2h 12mn
Overall bit rate               : 4 479 Kbps
Encoded date                   : UTC 2015-11-16 00:50:36
Writing application            : mkvmerge v7.8.0 ('River Man') 32bit built on Apr  3 2015 12:11:22
Writing library                : libebml v1.3.1 + libmatroska v1.4.2
Video
ID                             : 1
Format                         : AVC
Format/Info                    : Advanced Video Codec
Format profile                 : [email protected]
Format settings, CABAC         : No
Format settings, ReFrames      : 2 frames
Codec ID                       : V_MPEG4/ISO/AVC
Duration                       : 2h 12mn
Bit rate                       : 3 814 Kbps
Width                          : 1 280 pixels
Height                         : 536 pixels
Display aspect ratio           : 2.40:1
Frame rate mode                : Constant
Frame rate                     : 23.976 fps
Color space                    : YUV
Chroma subsampling             : 4:2:0
Bit depth                      : 8 bits
Scan type                      : Progressive
Bits/(Pixel*Frame)             : 0.232
Stream size                    : 3.52 GiB (85%)
Language                       : English
Default                        : Yes
Forced                         : No
Color range                    : Limited
Color primaries                : BT.709
Transfer characteristics       : BT.709
Matrix coefficients            : BT.709
Audio #1
ID                             : 2
Format                         : AC-3
Format/Info                    : Audio Coding 3
Mode extension                 : CM (complete main)
Format settings, Endianness    : Big
Codec ID                       : A_AC3
Duration                       : 2h 12mn
Bit rate mode                  : Constant
Bit rate                       : 192 Kbps
Channel(s)                     : 2 channels
Channel positions              : Front: L R
Sampling rate                  : 48.0 KHz
Bit depth                      : 16 bits
Compression mode               : Lossy
Stream size                    : 181 MiB (4%)
Language                       : Russian
Default                        : Yes
Forced                         : No
Audio #2
ID                             : 3
Format                         : AC-3
Format/Info                    : Audio Coding 3
Mode extension                 : CM (complete main)
Format settings, Endianness    : Big
Codec ID                       : A_AC3
Duration                       : 2h 12mn
Bit rate mode                  : Constant
Bit rate                       : 384 Kbps
Channel(s)                     : 6 channels
Channel positions              : Front: L C R, Side: L R, LFE
Sampling rate                  : 48.0 KHz
Bit depth                      : 16 bits
Compression mode               : Lossy
Stream size                    : 363 MiB (9%)
Language                       : English
Default                        : No
Forced                         : No
Text
ID                             : 4
Format                         : UTF-8
Codec ID                       : S_TEXT/UTF8
Codec ID/Info                  : UTF-8 Plain Text
Language                       : English
Default                        : No
Forced                         : No
Menu
00:00:00.000                   : en:Buddy and Purvis
00:09:51.000                   : en:Sheriff Hunt
00:24:27.000                   : en:Hunt and Arthur
00:34:51.000                   : en:A Rescue Plan
00:46:56.000                   : en:The First Night
01:02:34.000                   : en:Attacked
01:12:39.000                   : en:Another Setback
01:27:48.000                   : en:Prepare for Battle
01:34:13.000                   : en:Deputy Nick
01:46:46.000                   : en:Arthur to the Rescue
01:56:20.000                   : en:A Last Fight for Freedom
02:04:48.000                   : en:Credits

Скриншоты:

Яндекс.Метрика
Рейтинг@Mail.ru