[ Сегодня на трекере фрилич! Идет свободное скачивание без начисления Download ]

Скорость: Автобус 657 / Heist (2015) WEB-DL 720p | Чистый звук

 

Создавать темы 13-Ноя-2015 22:52

Скорость: Автобус 657 / HeistГод выхода: 2015
Жанр: боевик, триллер
Режиссер: Скотт Манн
В ролях:
Джеффри Дин Морган, Роберт Де Ниро, Кейт Босворт, Дэйв Батиста, Джина Карано, Марк-Пол Госселаар, Моррис Честнат, Д.Б. Суини, Саммер Элтис, Лидия Халл
О фильме:
Все знают, что обокрасть Фрэнка Поупа, владельца казино и босса мафии — это самоубийство. Но однажды некогда преданный ему крупье решается вынести из кассы казино несколько миллионов долларов. Все было продумано, но план не сработал. Скрываясь с места преступления, грабители захватывают автобус, полный заложников. На бешеной скорости автобус мчится к мексиканской границе. Топливо на пределе. На хвосте — мафия и полиция. И, кажется, выхода нет…

Выпущено: США / Emmett/Furla Films, Mass Hysteria Entertainment, Randall Emmett / George Furla Productions, Silver Plane Pictures, Tri Vision Pictures
Продолжительность: 01:32:34
Озвучивание: Дублированное [Чистый звук] официальное
Файл
Формат: MKV
Качество: WEB-DL 720p
Видео: MPEG-4 AVC, 3875 kb/s, 1280x528
Аудио: Russian: AC3, 192 kb/s (2 ch) / English: AC3, 384 kb/s (6 ch)
Субтитры: English

MI

Format                         : Matroska
Format version                 : Version 4 / Version 2
File size                      : 2.94 GiB
Duration                       : 1h 32mn
Overall bit rate               : 4 542 Kbps
Encoded date                   : UTC 2015-11-13 12:05:06
Writing application            : mkvmerge v8.2.0 ('World of Adventure') 64bit
Writing library                : libebml v1.3.1 + libmatroska v1.4.2
DURATION                       : 01:32:26.560000000
NUMBER_OF_FRAMES               : 173330
NUMBER_OF_BYTES                : 133117440
_STATISTICS_WRITING_APP        : mkvmerge v8.2.0 ('World of Adventure') 64bit
_STATISTICS_WRITING_DATE_UTC   : 2015-11-13 12:05:06
_STATISTICS_TAGS               : BPS DURATION NUMBER_OF_FRAMES NUMBER_OF_BYTES
Video
ID                             : 1
Format                         : AVC
Format/Info                    : Advanced Video Codec
Format profile                 : [email protected]
Format settings, CABAC         : No
Format settings, ReFrames      : 2 frames
Codec ID                       : V_MPEG4/ISO/AVC
Duration                       : 1h 32mn
Bit rate                       : 3 875 Kbps
Width                          : 1 280 pixels
Height                         : 528 pixels
Display aspect ratio           : 2.40:1
Frame rate mode                : Constant
Frame rate                     : 23.976 fps
Color space                    : YUV
Chroma subsampling             : 4:2:0
Bit depth                      : 8 bits
Scan type                      : Progressive
Bits/(Pixel*Frame)             : 0.239
Stream size                    : 2.51 GiB (85%)
Language                       : English
Default                        : Yes
Forced                         : No
Color range                    : Limited
Color primaries                : BT.709
Transfer characteristics       : BT.709
Matrix coefficients            : BT.709
Audio #1
ID                             : 2
Format                         : AC-3
Format/Info                    : Audio Coding 3
Mode extension                 : CM (complete main)
Format settings, Endianness    : Big
Codec ID                       : A_AC3
Duration                       : 1h 32mn
Bit rate mode                  : Constant
Bit rate                       : 192 Kbps
Channel(s)                     : 2 channels
Channel positions              : Front: L R
Sampling rate                  : 48.0 KHz
Bit depth                      : 16 bits
Compression mode               : Lossy
Stream size                    : 127 MiB (4%)
Language                       : Russian
Default                        : Yes
Forced                         : Yes
Audio #2
ID                             : 3
Format                         : AC-3
Format/Info                    : Audio Coding 3
Mode extension                 : CM (complete main)
Format settings, Endianness    : Big
Codec ID                       : A_AC3
Duration                       : 1h 32mn
Bit rate mode                  : Constant
Bit rate                       : 384 Kbps
Channel(s)                     : 6 channels
Channel positions              : Front: L C R, Side: L R, LFE
Sampling rate                  : 48.0 KHz
Bit depth                      : 16 bits
Compression mode               : Lossy
Stream size                    : 254 MiB (8%)
Language                       : English
Default                        : No
Forced                         : No
Text
ID                             : 4
Format                         : UTF-8
Codec ID                       : S_TEXT/UTF8
Codec ID/Info                  : UTF-8 Plain Text
Language                       : English
Default                        : No
Forced                         : No
Menu
00:00:00.000                   : en:1
00:02:51.000                   : en:2
00:12:43.000                   : en:3
00:23:18.000                   : en:4
00:34:36.000                   : en:5
00:44:47.000                   : en:6
00:55:00.000                   : en:7
01:05:01.000                   : en:8
01:15:31.000                   : en:9
01:27:10.000                   : en:10

Скриншоты:

Яндекс.Метрика
Рейтинг@Mail.ru