Da Vinci Learning: Что нам дала индустриальная революция / What The Industrial Revolution Did for Us [серии 1-6 из 6]

 

Создавать темы 12-Ноя-2015 23:39

-Da Vinci Learning: Что нам дала индустриальная революция-What The Industrial Revolution Did for Us [серии 1-6 из 6]- Год выпуска: 2004
Страна: Великобритания, BBC
Жанр: Документальный, архитектура, строительство, промышленность
Продолжительность: 6x~00:29:00
Перевод: Профессиональный (одноголосый)
Режиссер: Симон Бекер / Simon Baker, Билли Пинк / Billy Pink, Билли Парк / Billy Park, Джонатан Хассид / Jonathan Hassid
В ролях: Дэн Крикшэнк / Dan Cruickshank-Описание:-Многое в современном мире существует благодаря достижениям промышленной революции: от чайника, в котором мы кипятим воду, до офисов, в которых мы работаем. Ведущий этого шести-серийного документального фильма, историк архитектуры Дэн Крикшэнк рассказывает о преобразованиях, произошедших в 19-ом веке в науке, технике и политике и изменивших жизнь каждого человека.-Качество: SATRip
Контейнер: AVI
Видео кодек: XviD
Аудио кодек: AC3
Видео: 704x400 25fps ~1800 Kbps
Аудио: AC3 2ch, 48kHz, 192 kbps-Список серий:

01. Материальный мир / Material World

К невероятным достижениям промышленной революции относятся не только первый ткацкий станок и паровой двигатель, но и стетоскоп, консервная банка и даже фото-копировальный аппарат. Поиски истоков этой революции приводят в самое неожиданное место: за чайные столики Британии Георгианской эпохи, где аппетит к хорошей жизни привел к созданию нашего современного материального мира.

02. Чудо механизмы / Working Wonders

Образ жизни рабочего человека в 21-ом веке - густонаселенные города, автоматизированные заводы, офисная суета с девяти до пяти - уходит корнями в новшества и монументальные преобразования промышленной революции. Передача расскажет об интересных и зачастую неожиданных открытиях, заложивших фундамент для современного уклада рабочей жизни: от атомных электростанций до офисных копировальных машин.

03. Полный вперёд / On The Move

В 1750-ом году транспорт был настолько же незамысловат, как и во времена Римской империи. Менее, чем сто лет спустя, Великобритания стала мировым транспортным центром. Передача рассказывает о том, как это произошло, и кого стоит благодарить за появление в Великобритании первых приличных дорог, изобретение первого автомобиля, железнодорожного локомотива и парового двигателя.

04. Современная медицина / Modern Medicine

Во время начала промышленной революции, врачебная практика находилась на уровне средневековья. Болезни имели широкое распространение, а средняя продолжительность жизни составляла 36 лет. Эта удивительная история о пионерах здравого смысла и науки, бросивших вызов старому порядку вещей, о первых клинических опытах по проведению вакцинации против смертельной болезни и об изобретении ключевого инструмента диагностики, стетоскопа.

05. Военная машина / War Machine

Индустриальная революция изменила не только наш образ жизни. Некоторые величайшие умы применили принципы индустриализации к проблеме ведения войны. Последствия этого ощущались и за пределами поля боя. Например. Если бы не война, мы бы не узнали о консервированных бобах.

06. Городская жизнь / City Living

Повседневная жизнь британцев веками оставалась неизменной. были, в основном, сельского типа и функционального назначения, а с идеями декоративного и комфортного интерьера была знакома только горстка привилегированной знати. Промышленная революция возвестила появление среднего класса и навсегда преобразила британцев.
-

MediaInfo

Format : AVI
Format/Info : Audio Video Interleave
File size : 414 MiB
Duration : 29mn 1s
Overall bit rate : 1 995 Kbps
Writing application : TMPGEnc Video Mastering Works 5 Version. 5.0.6.38
Writing library : TMPGEnc Video Mastering Works 5 Version. 5.0.6.38
Video
ID : 0
Format : MPEG-4 Visual
Format profile : Advanced [email protected]
Format settings, BVOP : 2
Format settings, QPel : No
Format settings, GMC : No warppoints
Format settings, Matrix : Default (H.263)
Muxing mode : Packed bitstream
Codec ID : XVID
Codec ID/Hint : XviD
Duration : 29mn 1s
Bit rate : 1 795 Kbps
Width : 704 pixels
Height : 400 pixels
Display aspect ratio : 16:9
Frame rate : 25.000 fps
Color space : YUV
Chroma subsampling : 4:2:0
Bit depth : 8 bits
Scan type : Progressive
Compression mode : Lossy
Bits/(Pixel*Frame) : 0.255
Stream size : 373 MiB (90%)
Writing library : XviD 73
Audio
ID : 1
Format : AC-3
Format/Info : Audio Coding 3
Mode extension : CM (complete main)
Format settings, Endianness : Big
Codec ID : 2000
Duration : 29mn 1s
Bit rate mode : Constant
Bit rate : 192 Kbps
Channel(s) : 2 channels
Channel positions : Front: L R
Sampling rate : 48.0 KHz
Bit depth : 16 bits
Compression mode : Lossy
Stream size : 39.9 MiB (10%)
Alignment : Aligned on interleaves
Interleave, duration : 240 ms (6.00 video frames)
Interleave, preload duration : 224 ms
-Скриншоты--Благодарность за предоставленный рип: -Время раздачи: 24/7 (круглосуточно)-
Яндекс.Метрика
Рейтинг@Mail.ru