Секрет моего успеха / The Secret of My Success (Херберт Росс / Herbert Ross) [1987, США, Комедия, BDRip 1080p] Dub (Пифагор) + MVO + 2 x AVO (Ю. Живов, В. Королёв) + 2 x SUB (Rus, Eng) + Org Eng

 

Создавать темы 10-Ноя-2015 12:38

--Секрет моего успеха / The Secret of My Success-- Выпущено: США, Universal Pictures, Rastar Pictures
Жанр: Комедия
Год выпуска: 1987
Продолжительность: 01:50:24
Перевод #1: Профессиональный (дублированный) Пифагор
Перевод #2: Профессиональный (многоголосый закадровый)
Перевод #3: Авторский (одноголосый закадровый) Ю. Живов
Перевод #3: Авторский (одноголосый закадровый) В. Королёв
Оригинальная аудио-дорожка: Английская
Cубтитры: Русские, украинские, английские (Полные, SRT)
Навигация по главам: Есть (Сохранены оригинальные чаптеры с названием глав)
Режиссёр: Херберт Росс / Herbert Ross
В ролях: Майкл Дж. Фокс, Хелен Слейтер, Ричард Джордан, Маргарет Уиттон, Джон Пэнкоу, Кристофер Мерни, Джерри Бэммен, Фред Гвин, Кэрол Энн Сьюзи, Элизабет Франц
Описание: Брантли Фостер — выпускник колледжа из Канзаса — переезжает в Нью-Йорк, чтобы начать карьеру финансиста. Однако компанию, в которой он планировал работать, покупает другая корпорация, и нашему герою отказывают. После нескольких неудачных попыток найти другую работу Брантли устраивается на должность разносчика писем в компанию своего дяди Говарда Прескота.

Качество видео: BDRip (1080p) [Исходник: Blu-ray EUR 1080p AVC DTS 2.0]
Контейнер: MKV
Видео: MPEG-4 AVC, 1920x1040 (16:9), 12000 Кбит/с, 23.976 кадр/с
Аудио #1: Русский, DTS, 48000 Гц, 768 Кбит/с, 2 канала (Стерео) - Дублированный [Пифагор]
Аудио #2: Русский, Dolby AC3, 48000 Гц, 192 Кбит/с, 2 канала (Стерео) - Профессиональный многоголосый
Аудио #3: Русский, DTS, 48000 Гц, 1510 Кбит/с, 2 канала (Стерео) - Авторский одноголосый (Ю. Живов)
Аудио #4: Русский, DTS, 48000 Гц, 1510 Кбит/с, 2 канала (Стерео) - Авторский одноголосый (В. Королёв)
Аудио #5: Английский, DTS, 48000 Гц, 1510 Кбит/с, 2 канала (Стерео) - Оригинал

Автор рипа - ivandubskoj

x264

x264 [info]: frame I:986 Avg QP:21.10 size:182197
x264 [info]: frame P:31187 Avg QP:23.48 size: 82126
x264 [info]: frame B:126659 Avg QP:24.64 size: 56768
x264 [info]: consecutive B-frames: 1.2% 1.6% 7.3% 7.2% 11.8% 65.2% 5.8%

MediaInfo

General
Unique ID : 206038840935074324331757169659199588460 (0x9B01A32921B69CEDAED3F0A42E17886C)
Complete name : The.Secret.of.My.Success.1987.BDRip.1080p.mkv
Format : Matroska
File size : 13.5 GiB
Duration : 1h 50mn
Overall bit rate : 17.5 Mbps
Movie name : Секрет моего успеха / The Secret of My Success (1987) BDRip (1080p) от ivandubskoj
Encoded date : UTC 2015-11-10 09:13:37
Writing application : mkvmerge v6.1.0 ('Old Devil') built on Mar 4 2013 09:10:42
Writing library : libebml v1.3.0 + libmatroska v1.4.0
Video
ID : 1
Format : AVC
Format/Info : Advanced Video Codec
Format profile : [email protected]
Format settings, CABAC : Yes
Format settings, ReFrames : 4 frames
Codec ID : V_MPEG4/ISO/AVC
Duration : 1h 50mn
Bit rate : 12.0 Mbps
Width : 1 920 pixels
Height : 1 040 pixels
Display aspect ratio : 16:9
Frame rate : 23.976 fps
Color space : YUV
Chroma subsampling : 4:2:0
Bit depth : 8 bits
Scan type : Progressive
Bits/(Pixel*Frame) : 0.251
Stream size : 8.99 GiB (67%)
Title : Секрет моего успеха / The Secret of My Success (1987)
Writing library : x264 core 146 r2538 121396c
Encoding settings : cabac=1 / ref=4 / deblock=1:-2:-1 / analyse=0x3:0x113 / me=umh / subme=11 / psy=1 / psy_rd=1.00:0.00 / mixed_ref=1 / me_range=32 / chroma_me=1 / trellis=2 / 8x8dct=1 / cqm=0 / deadzone=21,11 / fast_pskip=0 / chroma_qp_offset=-2 / threads=6 / lookahead_threads=1 / sliced_threads=0 / nr=0 / decimate=1 / interlaced=0 / bluray_compat=0 / constrained_intra=0 / bframes=6 / b_pyramid=2 / b_adapt=2 / b_bias=0 / direct=3 / weightb=1 / open_gop=0 / weightp=2 / keyint=240 / keyint_min=23 / scenecut=40 / intra_refresh=0 / rc_lookahead=60 / rc=2pass / mbtree=1 / bitrate=12000 / ratetol=1.0 / qcomp=0.60 / qpmin=0 / qpmax=69 / qpstep=4 / cplxblur=20.0 / qblur=0.5 / vbv_maxrate=50000 / vbv_bufsize=50000 / nal_hrd=none / ip_ratio=1.40 / aq=1:1.00
Language : English
Audio #1
ID : 2
Format : DTS
Format/Info : Digital Theater Systems
Codec ID : A_DTS
Duration : 1h 50mn
Bit rate mode : Constant
Bit rate : 755 Kbps
Channel(s) : 2 channels
Channel positions : Front: L R
Sampling rate : 48.0 KHz
Bit depth : 24 bits
Compression mode : Lossy
Stream size : 596 MiB (4%)
Title : DUB [Пифагор]
Language : Russian
Audio #2
ID : 3
Format : AC-3
Format/Info : Audio Coding 3
Mode extension : CM (complete main)
Codec ID : A_AC3
Duration : 1h 50mn
Bit rate mode : Constant
Bit rate : 192 Kbps
Channel(s) : 2 channels
Channel positions : Front: L R
Sampling rate : 48.0 KHz
Bit depth : 16 bits
Compression mode : Lossy
Stream size : 152 MiB (1%)
Title : MVO
Language : Russian
Audio #3
ID : 4
Format : DTS
Format/Info : Digital Theater Systems
Codec ID : A_DTS
Duration : 1h 50mn
Bit rate mode : Constant
Bit rate : 1 510 Kbps
Channel(s) : 2 channels
Channel positions : Front: L R
Sampling rate : 48.0 KHz
Bit depth : 24 bits
Compression mode : Lossy
Stream size : 1.16 GiB (9%)
Title : AVO [Ю. Живов]
Language : Russian
Audio #4
ID : 5
Format : DTS
Format/Info : Digital Theater Systems
Codec ID : A_DTS
Duration : 1h 50mn
Bit rate mode : Constant
Bit rate : 1 510 Kbps
Channel(s) : 2 channels
Channel positions : Front: L R
Sampling rate : 48.0 KHz
Bit depth : 24 bits
Compression mode : Lossy
Stream size : 1.16 GiB (9%)
Title : AVO [В. Королёв]
Language : Russian
Audio #5
ID : 6
Format : DTS
Format/Info : Digital Theater Systems
Codec ID : A_DTS
Duration : 1h 50mn
Bit rate mode : Constant
Bit rate : 1 510 Kbps
Channel(s) : 2 channels
Channel positions : Front: L R
Sampling rate : 48.0 KHz
Bit depth : 24 bits
Compression mode : Lossy
Stream size : 1.16 GiB (9%)
Title : Original
Language : English
Text #1
ID : 7
Format : UTF-8
Codec ID : S_TEXT/UTF8
Codec ID/Info : UTF-8 Plain Text
Title : Full
Language : Russian
Text #2
ID : 8
Format : UTF-8
Codec ID : S_TEXT/UTF8
Codec ID/Info : UTF-8 Plain Text
Title : Full
Language : Ukrainian
Text #3
ID : 9
Format : UTF-8
Codec ID : S_TEXT/UTF8
Codec ID/Info : UTF-8 Plain Text
Title : Full
Language : English
Menu
00:00:00.000 : :Going Off To New York (Main Titles)
00:04:53.668 : :Hired And Fired
00:10:25.708 : :Uncle Howard
00:17:42.061 : :The New Job
00:23:10.055 : :The Corporate Wife
00:32:38.123 : :Auntie Vera?
00:34:52.047 : :Some Gutsy Decisions
00:39:36.165 : :Meet Carlton Whitfield
00:52:43.869 : :Working Late
00:57:15.891 : :His Other Wife
01:02:08.475 : :Convincing Christy
01:11:04.510 : :Bad Timing
01:14:29.006 : :Half-A-Step Ahead
01:21:01.231 : :A Favor For Howard
01:23:32.925 : :The Party
01:29:26.903 : :The Awful Truth
01:37:16.747 : :The Job Or The Girl?
01:39:29.630 : :Outdoing Mr. Davenport
01:44:38.314 : :Sometimes The Good Guys Finish First
01:46:29.466 : :End Titles

Скриншот c названием фильма

Скриншоты:

Яндекс.Метрика
Рейтинг@Mail.ru