Сожженные приношения / Жертвы всесожжения / Burnt Offerings (Дэн Кертис / Dan Curtis) [1976, США, Италия, ужасы, детектив, BDRemux 1080p] VO (fiendover) + Sub Eng + Original Eng

 

Создавать темы 10-Ноя-2015 07:36

Сожженные приношения / Жертвы всесожжения / Burnt Offerings
Страна: США, Италия
Студия: Dan Curtis Productions Inc., Produzioni Europee Associati (PEA)
Жанр: ужасы, детектив
Год выпуска: 1976
Продолжительность: 01:56:02
Перевод: Одноголосый закадровый fiendover
Cубтитры: английские
Оригинальная аудиодорожка: английский
Режиссер: Дэн Кертис / Dan Curtis
В ролях: Карен Блэк, Оливер Рид, Бёрджесс Мередит, Айлин Хекарт, Ли Монтгомери, Даб Тейлор, Бетт Дэвис, Джозеф Райли, Тодд Турканд, Орин Кэннон
Описание: Бен и Мариан Рольф по чрезвычайно низкой цене арендуют огромный старый дом у странной четы. Но те ставят им одно условие. Они не будут в нем ничего трогать, а также будут ухаживать за их 85-летней матерью, миссис Алладис. Вскоре к Рольфам присоединяются их двенадцатилетний сын Дэвид и тетя Бена по имени Элизабет. Постепенно обитатели обнаруживают, что дом населяют привидения. Миссис Алладис так никто и не видит…
Кинопоиск
Sample
Тип релиза: BDRemux 1080p
Контейнер: MKV
Видео: MPEG4 AVC Video, H264, 16:9, 1920x1080, 23.976 fps, 24798 Kbps
Аудио: Russian (AC3, 2 ch, 192 kbps, 16 bits, 48.0 KHz) - VO
Аудио 2: English (DTS-HD MA, 2 ch, 1566 kbps, 16 bits, 48.0 KHz / DTS core: 2 ch, 1509 kbps, 16 bits, 48.0 KHz) - оригинал
Аудио 3: English (AC3, 2 ch, 192 kbps, 16 bits, 48.0 KHz) - комментарии #1
Аудио 4: English (AC3, 2 ch, 192 kbps, 16 bits, 48.0 KHz) - комментарии #2
Формат субтитров: softsub (SRT)

MediaInfo

General
Unique ID : 191969550997320702257413611070285480484 (0x906BFD9C64D56C5C9567615385AD0224)
Complete name : E:\Burnt Offerings 1976 BDRemux 1080p.mkv
Format : Matroska
Format version : Version 4 / Version 2
File size : 21.9 GiB
Duration : 1h 56mn
Overall bit rate mode : Variable
Overall bit rate : 27.0 Mbps
Encoded date : UTC 2015-11-10 00:30:39
Writing application : mkvmerge v6.1.0 ('Old Devil') built on Mar 2 2013 14:32:37
Writing library : libebml v1.3.0 + libmatroska v1.4.0
Video
ID : 1
Format : AVC
Format/Info : Advanced Video Codec
Format profile : [email protected]
Format settings, CABAC : Yes
Format settings, ReFrames : 4 frames
Codec ID : V_MPEG4/ISO/AVC
Duration : 1h 56mn
Bit rate mode : Variable
Maximum bit rate : 35.0 Mbps
Width : 1 920 pixels
Height : 1 080 pixels
Display aspect ratio : 16:9
Frame rate mode : Constant
Frame rate : 23.976 fps
Standard : NTSC
Color space : YUV
Chroma subsampling : 4:2:0
Bit depth : 8 bits
Scan type : Progressive
Language : English
Default : Yes
Forced : No
Color primaries : BT.709
Transfer characteristics : BT.709
Matrix coefficients : BT.709
Audio #1
ID : 2
Format : AC-3
Format/Info : Audio Coding 3
Mode extension : CM (complete main)
Format settings, Endianness : Big
Codec ID : A_AC3
Duration : 1h 56mn
Bit rate mode : Constant
Bit rate : 192 Kbps
Channel count : 2 channels
Channel positions : Front: L R
Sampling rate : 48.0 KHz
Bit depth : 16 bits
Compression mode : Lossy
Stream size : 159 MiB (1%)
Language : Russian
Default : Yes
Forced : No
Audio #2
ID : 3
Format : DTS
Format/Info : Digital Theater Systems
Format profile : MA / Core
Mode : 16
Format settings, Endianness : Big
Codec ID : A_DTS
Duration : 1h 56mn
Bit rate mode : Variable
Bit rate : Unknown / 1 509 Kbps
Channel count : 2 channels
Channel positions : Front: L R
Sampling rate : 48.0 KHz
Bit depth : 16 bits
Compression mode : Lossless / Lossy
Language : English
Default : No
Forced : No
Audio #3
ID : 4
Format : AC-3
Format/Info : Audio Coding 3
Mode extension : CM (complete main)
Format settings, Endianness : Big
Codec ID : A_AC3
Duration : 1h 56mn
Bit rate mode : Constant
Bit rate : 192 Kbps
Channel count : 2 channels
Channel positions : Front: L R
Sampling rate : 48.0 KHz
Bit depth : 16 bits
Compression mode : Lossy
Stream size : 159 MiB (1%)
Title : комментарии 1
Language : English
Default : No
Forced : No
Audio #4
ID : 5
Format : AC-3
Format/Info : Audio Coding 3
Mode extension : CM (complete main)
Format settings, Endianness : Big
Codec ID : A_AC3
Duration : 1h 56mn
Bit rate mode : Constant
Bit rate : 192 Kbps
Channel count : 2 channels
Channel positions : Front: L R
Sampling rate : 48.0 KHz
Bit depth : 16 bits
Compression mode : Lossy
Stream size : 159 MiB (1%)
Title : комментарии 2
Language : English
Default : No
Forced : No
Text
ID : 6
Format : UTF-8
Codec ID : S_TEXT/UTF8
Codec ID/Info : UTF-8 Plain Text
Language : English
Default : No
Forced : No

Скриншоты:

Яндекс.Метрика
Рейтинг@Mail.ru